<?xml version="1.0" standalone="no"?>
<!DOCTYPE svg PUBLIC "-//W3C//DTD SVG 1.1//EN" "http://www.w3.org/Graphics/SVG/1.1/DTD/svg11.dtd" >
<svg xmlns="http://www.w3.org/2000/svg">
<metadata>
This is a custom SVG font generated by IcoMoon.
<iconset grid="16"></iconset>
</metadata>
<defs>
<font id="flaticons-stroke" horiz-adv-x="512" >
<font-face units-per-em="512" ascent="480" descent="-32" />
<missing-glyph horiz-adv-x="512" />
<glyph unicode="&#xe3e8;" d="M 32.00-32.00l 64.00,0.00 c 17.664,0.00, 32.00,14.304, 32.00,32.00l0.00,64.00 c0.00,17.696-14.336,32.00-32.00,32.00L 32.00,96.00 c-17.664,0.00-32.00-14.304-32.00-32.00l0.00-64.00 
		C0.00-17.696, 14.336-32.00, 32.00-32.00zM 224.00-32.00l 64.00,0.00 c 17.696,0.00, 32.00,14.304, 32.00,32.00l0.00,64.00 c0.00,17.696-14.304,32.00-32.00,32.00L 224.00,96.00 c-17.664,0.00-32.00-14.304-32.00-32.00l0.00-64.00 
		C 192.00-17.696, 206.336-32.00, 224.00-32.00zM 416.00-32.00l 64.00,0.00 c 17.696,0.00, 32.00,14.304, 32.00,32.00l0.00,64.00 c0.00,17.696-14.304,32.00-32.00,32.00l-64.00,0.00 c-17.696,0.00-32.00-14.304-32.00-32.00l0.00-64.00 
		C 384.00-17.696, 398.304-32.00, 416.00-32.00zM 32.00,352.00l 64.00,0.00 c 17.664,0.00, 32.00,14.336, 32.00,32.00L 128.00,448.00 c0.00,17.664-14.336,32.00-32.00,32.00L 32.00,480.00 C 14.336,480.00,0.00,465.664,0.00,448.00l0.00-64.00 C0.00,366.336, 14.336,352.00, 32.00,352.00zM 224.00,352.00l 64.00,0.00 c 17.696,0.00, 32.00,14.336, 32.00,32.00L 320.00,448.00 c0.00,17.664-14.304,32.00-32.00,32.00L 224.00,480.00 C 206.336,480.00, 192.00,465.664, 192.00,448.00l0.00-64.00 C 192.00,366.336, 206.336,352.00, 224.00,352.00zM 384.00,448.00l0.00-64.00 c0.00-17.664, 14.304-32.00, 32.00-32.00l 64.00,0.00 c 17.696,0.00, 32.00,14.336, 32.00,32.00L 512.00,448.00 c0.00,17.664-14.304,32.00-32.00,32.00l-64.00,0.00 
		C 398.304,480.00, 384.00,465.664, 384.00,448.00zM 32.00,160.00l 64.00,0.00 c 17.664,0.00, 32.00,14.304, 32.00,32.00L 128.00,256.00 c0.00,17.664-14.336,32.00-32.00,32.00L 32.00,288.00 C 14.336,288.00,0.00,273.664,0.00,256.00l0.00-64.00 C0.00,174.304, 14.336,160.00, 32.00,160.00z
		M 224.00,160.00l 64.00,0.00 c 17.696,0.00, 32.00,14.304, 32.00,32.00L 320.00,256.00 c0.00,17.664-14.304,32.00-32.00,32.00L 224.00,288.00 C 206.336,288.00, 192.00,273.664, 192.00,256.00l0.00-64.00 C 192.00,174.304, 206.336,160.00, 224.00,160.00z
		M 416.00,160.00l 64.00,0.00 c 17.696,0.00, 32.00,14.304, 32.00,32.00L 512.00,256.00 c0.00,17.664-14.304,32.00-32.00,32.00l-64.00,0.00 c-17.696,0.00-32.00-14.336-32.00-32.00l0.00-64.00 
		C 384.00,174.304, 398.304,160.00, 416.00,160.00z"  />
<glyph unicode="&#xe3e9;" d="M0.00,448.00l0.00-160.00 c0.00-17.696, 14.336-32.00, 32.00-32.00l 160.00,0.00 c 17.664,0.00, 32.00,14.304, 32.00,32.00L 224.00,448.00 
		c0.00,17.696-14.336,32.00-32.00,32.00L 32.00,480.00 C 14.336,480.00,0.00,465.696,0.00,448.00z M 160.00,320.00L 64.00,320.00 L 64.00,416.00 l 96.00,0.00 L 160.00,320.00 zM 32.00,192.00c-17.664,0.00-32.00-14.304-32.00-32.00l0.00-160.00 c0.00-17.696, 14.336-32.00, 32.00-32.00l 160.00,0.00 
		c 17.664,0.00, 32.00,14.304, 32.00,32.00l0.00,160.00 c0.00,17.696-14.336,32.00-32.00,32.00L 32.00,192.00 z M 160.00,32.00L 64.00,32.00 l0.00,96.00 l 96.00,0.00 L 160.00,32.00 zM 320.00,192.00c-17.696,0.00-32.00-14.304-32.00-32.00l0.00-160.00 c0.00-17.696, 14.304-32.00, 32.00-32.00l 160.00,0.00 
		c 17.696,0.00, 32.00,14.304, 32.00,32.00l0.00,160.00 c0.00,17.696-14.304,32.00-32.00,32.00L 320.00,192.00 z M 448.00,32.00l-96.00,0.00 l0.00,96.00 l 96.00,0.00 L 448.00,32.00 zM 320.00,480.00C 302.304,480.00, 288.00,465.696, 288.00,448.00l0.00-160.00 c0.00-17.696, 14.304-32.00, 32.00-32.00l 160.00,0.00 
		c 17.696,0.00, 32.00,14.304, 32.00,32.00L 512.00,448.00 c0.00,17.696-14.304,32.00-32.00,32.00L 320.00,480.00 z M 448.00,320.00l-96.00,0.00 L 352.00,416.00 l 96.00,0.00 L 448.00,320.00 z"  />
<glyph unicode="&#xe3ea;" d="M 480.00,480.00L 32.00,480.00 C 14.336,480.00,0.00,465.696,0.00,448.00l0.00-448.00 c0.00-17.696, 14.336-32.00, 32.00-32.00l 448.00,0.00 
		c 17.696,0.00, 32.00,14.304, 32.00,32.00L 512.00,448.00 C 512.00,465.696, 497.696,480.00, 480.00,480.00z M 448.00,32.00L 64.00,32.00 L 64.00,416.00 l 384.00,0.00 L 448.00,32.00 zM 320.00,352.00L 384.00,352.00L 384.00,288.00L 320.00,288.00zM 224.00,352.00L 288.00,352.00L 288.00,288.00L 224.00,288.00zM 128.00,352.00L 192.00,352.00L 192.00,288.00L 128.00,288.00zM 128.00,256.00L 192.00,256.00L 192.00,192.00L 128.00,192.00zM 224.00,256.00L 288.00,256.00L 288.00,192.00L 224.00,192.00zM 320.00,256.00L 384.00,256.00L 384.00,192.00L 320.00,192.00zM 320.00,160.00L 384.00,160.00L 384.00,96.00L 320.00,96.00zM 224.00,160.00L 288.00,160.00L 288.00,96.00L 224.00,96.00zM 128.00,160.00L 192.00,160.00L 192.00,96.00L 128.00,96.00z"  />
<glyph unicode="&#xe3eb;" d="M 480.00,480.00L 32.00,480.00 C 14.336,480.00,0.00,465.696,0.00,448.00l0.00-448.00 c0.00-17.696, 14.336-32.00, 32.00-32.00l 448.00,0.00 
		c 17.696,0.00, 32.00,14.304, 32.00,32.00L 512.00,448.00 C 512.00,465.696, 497.696,480.00, 480.00,480.00z M 448.00,32.00L 64.00,32.00 L 64.00,416.00 l 384.00,0.00 L 448.00,32.00 zM 208.00,352.00l-64.00,0.00 C 135.168,352.00, 128.00,344.832, 128.00,336.00l0.00-64.00 C 128.00,263.168, 135.168,256.00, 144.00,256.00l 64.00,0.00 
		C 216.832,256.00, 224.00,263.168, 224.00,272.00l0.00,64.00 C 224.00,344.832, 216.832,352.00, 208.00,352.00zM 368.00,352.00l-64.00,0.00 C 295.168,352.00, 288.00,344.832, 288.00,336.00l0.00-64.00 C 288.00,263.168, 295.168,256.00, 304.00,256.00l 64.00,0.00 
		C 376.832,256.00, 384.00,263.168, 384.00,272.00l0.00,64.00 C 384.00,344.832, 376.832,352.00, 368.00,352.00zM 208.00,192.00l-64.00,0.00 C 135.168,192.00, 128.00,184.832, 128.00,176.00l0.00-64.00 C 128.00,103.168, 135.168,96.00, 144.00,96.00l 64.00,0.00 
		C 216.832,96.00, 224.00,103.168, 224.00,112.00l0.00,64.00 C 224.00,184.832, 216.832,192.00, 208.00,192.00zM 368.00,192.00l-64.00,0.00 C 295.168,192.00, 288.00,184.832, 288.00,176.00l0.00-64.00 C 288.00,103.168, 295.168,96.00, 304.00,96.00
		l 64.00,0.00 c 8.832,0.00, 16.00,7.168, 16.00,16.00l0.00,64.00 C 384.00,184.832, 376.832,192.00, 368.00,192.00z"  />
<glyph unicode="&#xe3ec;" d="M 480.00,480.00L 128.00,480.00 C 110.336,480.00, 96.00,465.696, 96.00,448.00l0.00-64.00 L 32.00,384.00 C 14.336,384.00,0.00,369.696,0.00,352.00l0.00-352.00 
		c0.00-17.696, 14.336-32.00, 32.00-32.00l 352.00,0.00 c 17.696,0.00, 32.00,14.304, 32.00,32.00l0.00,64.00 l 64.00,0.00 c 17.696,0.00, 32.00,14.304, 32.00,32.00L 512.00,448.00 C 512.00,465.696, 497.696,480.00, 480.00,480.00z M 352.00,32.00L 64.00,32.00 L 64.00,320.00 l 288.00,0.00 L 352.00,32.00 z M 448.00,128.00l-32.00,0.00 L 416.00,352.00 
		c0.00,17.696-14.304,32.00-32.00,32.00L 160.00,384.00 L 160.00,416.00 l 288.00,0.00 L 448.00,128.00 zM 240.00,96.00l 32.00,0.00 C 280.832,96.00, 288.00,103.168, 288.00,112.00l0.00,32.00 
		C 288.00,152.832, 280.832,160.00, 272.00,160.00l-32.00,0.00 C 231.168,160.00, 224.00,152.832, 224.00,144.00l0.00-32.00 C 224.00,103.168, 231.168,96.00, 240.00,96.00zM 144.00,96.00l 32.00,0.00 C 184.832,96.00, 192.00,103.168, 192.00,112.00l0.00,32.00 
		C 192.00,152.832, 184.832,160.00, 176.00,160.00l-32.00,0.00 C 135.168,160.00, 128.00,152.832, 128.00,144.00l0.00-32.00 C 128.00,103.168, 135.168,96.00, 144.00,96.00zM 240.00,192.00l 32.00,0.00 C 280.832,192.00, 288.00,199.168, 288.00,208.00l0.00,32.00 C 288.00,248.832, 280.832,256.00, 272.00,256.00l-32.00,0.00 
		C 231.168,256.00, 224.00,248.832, 224.00,240.00l0.00-32.00 C 224.00,199.168, 231.168,192.00, 240.00,192.00zM 144.00,192.00l 32.00,0.00 C 184.832,192.00, 192.00,199.168, 192.00,208.00l0.00,32.00 C 192.00,248.832, 184.832,256.00, 176.00,256.00l-32.00,0.00 
		C 135.168,256.00, 128.00,248.832, 128.00,240.00l0.00-32.00 C 128.00,199.168, 135.168,192.00, 144.00,192.00z"  />
<glyph unicode="&#xe3ed;" d="M 480.00,480.00L 160.00,480.00 C 142.336,480.00, 128.00,465.696, 128.00,448.00l0.00-96.00 L 32.00,352.00 
	C 14.336,352.00,0.00,337.696,0.00,320.00l0.00-320.00 c0.00-17.696, 14.336-32.00, 32.00-32.00l 320.00,0.00 c 17.696,0.00, 32.00,14.304, 32.00,32.00l0.00,96.00 l 96.00,0.00 c 17.696,0.00, 32.00,14.304, 32.00,32.00L 512.00,448.00 C 512.00,465.696, 497.696,480.00, 480.00,480.00z M 320.00,32.00L 64.00,32.00 
	L 64.00,288.00 l 64.00,0.00 l0.00-160.00 c0.00-17.696, 14.336-32.00, 32.00-32.00l 160.00,0.00 L 320.00,32.00 z M 448.00,160.00L 192.00,160.00 L 192.00,416.00 l 256.00,0.00 L 448.00,160.00 z"  />
<glyph unicode="&#xe3ee;" d="M 480.00,480.00L 160.00,480.00 C 142.304,480.00, 128.00,465.696, 128.00,448.00l0.00-96.00 L 32.00,352.00 C 14.304,352.00,0.00,337.696,0.00,320.00l0.00-320.00 
		c0.00-17.696, 14.304-32.00, 32.00-32.00l 320.00,0.00 c 17.696,0.00, 32.00,14.304, 32.00,32.00l0.00,96.00 l 96.00,0.00 c 17.696,0.00, 32.00,14.304, 32.00,32.00L 512.00,448.00 C 512.00,465.696, 497.696,480.00, 480.00,480.00z M 320.00,32.00L 64.00,32.00 L 64.00,288.00 l 256.00,0.00 L 320.00,32.00 z M 448.00,160.00l-64.00,0.00 L 384.00,320.00 
		c0.00,17.696-14.304,32.00-32.00,32.00L 192.00,352.00 L 192.00,416.00 l 256.00,0.00 L 448.00,160.00 zM 112.00,128.00L 160.00,128.00 l0.00-48.00 C 160.00,71.168, 167.168,64.00, 176.00,64.00l 32.00,0.00 
		C 216.832,64.00, 224.00,71.168, 224.00,80.00L 224.00,128.00 l 48.00,0.00 C 280.832,128.00, 288.00,135.168, 288.00,144.00l0.00,32.00 C 288.00,184.832, 280.832,192.00, 272.00,192.00L 224.00,192.00 L 224.00,240.00 C 224.00,248.832, 216.832,256.00, 208.00,256.00l-32.00,0.00 
		C 167.168,256.00, 160.00,248.832, 160.00,240.00L 160.00,192.00 L 112.00,192.00 C 103.168,192.00, 96.00,184.832, 96.00,176.00l0.00-32.00 C 96.00,135.168, 103.168,128.00, 112.00,128.00z"  />
<glyph unicode="&#xe3ef;" d="M 480.00,480.00L 32.00,480.00 C 14.40,480.00,0.00,465.60,0.00,448.00l0.00-448.00 c0.00-17.60, 14.40-32.00, 32.00-32.00
	l 448.00,0.00 c 17.60,0.00, 32.00,14.40, 32.00,32.00L 512.00,448.00 C 512.00,465.60, 497.60,480.00, 480.00,480.00z M 64.00,416.00l 64.00,0.00 l0.00-64.00 L 64.00,352.00 L 64.00,416.00 z M 448.00,32.00L 64.00,32.00 L 64.00,288.00 l 384.00,0.00 L 448.00,32.00 z M 448.00,352.00L 192.00,352.00 L 192.00,416.00 l 256.00,0.00 L 448.00,352.00 z"  />
<glyph unicode="&#xe3f0;" d="M 480.00,480.00L 32.00,480.00 C 14.40,480.00,0.00,465.60,0.00,448.00l0.00-448.00 c0.00-17.60, 14.40-32.00, 32.00-32.00l 448.00,0.00 
		c 17.60,0.00, 32.00,14.40, 32.00,32.00L 512.00,448.00 C 512.00,465.60, 497.60,480.00, 480.00,480.00z M 64.00,416.00l 64.00,0.00 l0.00-64.00 L 64.00,352.00 L 64.00,416.00 z M 448.00,32.00L 64.00,32.00 L 64.00,288.00 l 384.00,0.00 L 448.00,32.00 z M 448.00,352.00L 192.00,352.00 L 192.00,416.00 l 256.00,0.00 L 448.00,352.00 zM 176.00,192.00l 160.00,0.00 C 344.832,192.00, 352.00,184.832, 352.00,176.00l0.00-32.00 
		c0.00-8.832-7.168-16.00-16.00-16.00l-160.00,0.00 C 167.168,128.00, 160.00,135.168, 160.00,144.00l0.00,32.00 C 160.00,184.832, 167.168,192.00, 176.00,192.00z"  />
<glyph unicode="&#xe3f1;" d="M 480.00,480.00L 32.00,480.00 C 14.40,480.00,0.00,465.60,0.00,448.00l0.00-448.00 c0.00-17.60, 14.40-32.00, 32.00-32.00l 448.00,0.00 
		c 17.60,0.00, 32.00,14.40, 32.00,32.00L 512.00,448.00 C 512.00,465.60, 497.60,480.00, 480.00,480.00z M 64.00,416.00l 64.00,0.00 l0.00-64.00 L 64.00,352.00 L 64.00,416.00 z M 448.00,32.00L 64.00,32.00 L 64.00,288.00 l 384.00,0.00 L 448.00,32.00 z M 448.00,352.00L 192.00,352.00 L 192.00,416.00 l 256.00,0.00 L 448.00,352.00 zM 176.00,128.00L 224.00,128.00 l0.00-48.00 C 224.00,71.168, 231.168,64.00, 240.00,64.00l 32.00,0.00 
		C 280.832,64.00, 288.00,71.168, 288.00,80.00L 288.00,128.00 l 48.00,0.00 c 8.832,0.00, 16.00,7.168, 16.00,16.00l0.00,32.00 C 352.00,184.832, 344.832,192.00, 336.00,192.00L 288.00,192.00 L 288.00,240.00 C 288.00,248.832, 280.832,256.00, 272.00,256.00l-32.00,0.00 
		C 231.168,256.00, 224.00,248.832, 224.00,240.00L 224.00,192.00 L 176.00,192.00 C 167.168,192.00, 160.00,184.832, 160.00,176.00l0.00-32.00 C 160.00,135.168, 167.168,128.00, 176.00,128.00z"  />
<glyph unicode="&#xe3f2;" d="M 164.768,91.488l 22.624-22.624c 6.24-6.24, 16.384-6.24, 22.624,0.00
		l 45.888,45.888l 46.048-46.048c 6.24-6.24, 16.384-6.24, 22.624,0.00l 22.624,22.624c 6.24,6.24, 6.24,16.384,0.00,22.624L 301.152,160.00l 46.048,46.048
		c 6.24,6.24, 6.24,16.384,0.00,22.624l-22.624,22.624c-6.24,6.24-16.384,6.24-22.624,0.00L 255.904,205.248L 210.016,251.136
		c-6.24,6.24-16.384,6.24-22.624,0.00L 164.768,228.512c-6.24-6.24-6.24-16.384,0.00-22.624L 210.656,160.00l-45.888-45.888
		C 158.528,107.872, 158.528,97.76, 164.768,91.488zM 480.00,480.00L 32.00,480.00 C 14.304,480.00,0.00,465.664,0.00,448.00l0.00-448.00 c0.00-17.696, 14.304-32.00, 32.00-32.00l 448.00,0.00 
		c 17.696,0.00, 32.00,14.304, 32.00,32.00L 512.00,448.00 C 512.00,465.664, 497.696,480.00, 480.00,480.00z M 64.00,416.00l 64.00,0.00 l0.00-64.00 L 64.00,352.00 L 64.00,416.00 z M 448.00,32.00L 64.00,32.00 L 64.00,288.00 l 384.00,0.00 L 448.00,32.00 z M 448.00,352.00L 192.00,352.00 L 192.00,416.00 l 256.00,0.00 L 448.00,352.00 z"  />
<glyph unicode="&#xe3f3;" d="M 480.00,480.00L 32.00,480.00 C 14.40,480.00,0.00,465.60,0.00,448.00l0.00-448.00 c0.00-17.60, 14.40-32.00, 32.00-32.00l 448.00,0.00 
		c 17.60,0.00, 32.00,14.40, 32.00,32.00L 512.00,448.00 C 512.00,465.60, 497.60,480.00, 480.00,480.00z M 80.00,448.00l 32.00,0.00 C 120.832,448.00, 128.00,440.832, 128.00,432.00l0.00-32.00 C 128.00,391.168, 120.832,384.00, 112.00,384.00l-32.00,0.00 C 71.168,384.00, 64.00,391.168, 64.00,400.00l0.00,32.00 
		C 64.00,440.832, 71.168,448.00, 80.00,448.00z M 448.00,32.00L 64.00,32.00 L 64.00,352.00 l 384.00,0.00 L 448.00,32.00 z"  />
<glyph unicode="&#xe3f4;" d="M 480.00,480.00L 32.00,480.00 C 14.40,480.00,0.00,465.60,0.00,448.00l0.00-448.00 c0.00-17.60, 14.40-32.00, 32.00-32.00l 448.00,0.00 
		c 17.60,0.00, 32.00,14.40, 32.00,32.00L 512.00,448.00 C 512.00,465.60, 497.60,480.00, 480.00,480.00z M 80.00,448.00l 32.00,0.00 C 120.832,448.00, 128.00,440.832, 128.00,432.00l0.00-32.00 C 128.00,391.168, 120.832,384.00, 112.00,384.00l-32.00,0.00 C 71.168,384.00, 64.00,391.168, 64.00,400.00l0.00,32.00 
		C 64.00,440.832, 71.168,448.00, 80.00,448.00z M 448.00,32.00L 64.00,32.00 L 64.00,352.00 l 384.00,0.00 L 448.00,32.00 zM 176.00,160.00l 160.00,0.00 c 8.832,0.00, 16.00,7.168, 16.00,16.00l0.00,32.00 
		C 352.00,216.832, 344.832,224.00, 336.00,224.00l-160.00,0.00 C 167.168,224.00, 160.00,216.832, 160.00,208.00l0.00-32.00 C 160.00,167.168, 167.168,160.00, 176.00,160.00z"  />
<glyph unicode="&#xe3f5;" d="M 480.00,480.00L 32.00,480.00 C 14.40,480.00,0.00,465.60,0.00,448.00l0.00-448.00 c0.00-17.60, 14.40-32.00, 32.00-32.00l 448.00,0.00 
		c 17.60,0.00, 32.00,14.40, 32.00,32.00L 512.00,448.00 C 512.00,465.60, 497.60,480.00, 480.00,480.00z M 64.00,432.00C 64.00,440.832, 71.168,448.00, 80.00,448.00l 32.00,0.00 C 120.832,448.00, 128.00,440.832, 128.00,432.00l0.00-32.00 C 128.00,391.168, 120.832,384.00, 112.00,384.00l-32.00,0.00 
		C 71.168,384.00, 64.00,391.168, 64.00,400.00L 64.00,432.00 z M 448.00,32.00L 64.00,32.00 L 64.00,352.00 l 384.00,0.00 L 448.00,32.00 zM 176.00,160.00L 224.00,160.00 l0.00-48.00 C 224.00,103.168, 231.168,96.00, 240.00,96.00l 32.00,0.00 
		C 280.832,96.00, 288.00,103.168, 288.00,112.00L 288.00,160.00 l 48.00,0.00 c 8.832,0.00, 16.00,7.168, 16.00,16.00l0.00,32.00 C 352.00,216.832, 344.832,224.00, 336.00,224.00L 288.00,224.00 L 288.00,272.00 C 288.00,280.832, 280.832,288.00, 272.00,288.00l-32.00,0.00 
		C 231.168,288.00, 224.00,280.832, 224.00,272.00L 224.00,224.00 L 176.00,224.00 C 167.168,224.00, 160.00,216.832, 160.00,208.00l0.00-32.00 C 160.00,167.168, 167.168,160.00, 176.00,160.00z"  />
<glyph unicode="&#xe3f6;" d="M 480.00,480.00L 32.00,480.00 C 14.40,480.00,0.00,465.60,0.00,448.00l0.00-448.00 c0.00-17.60, 14.40-32.00, 32.00-32.00l 448.00,0.00 
		c 17.60,0.00, 32.00,14.40, 32.00,32.00L 512.00,448.00 C 512.00,465.60, 497.60,480.00, 480.00,480.00z M 64.00,432.00C 64.00,440.832, 71.168,448.00, 80.00,448.00l 32.00,0.00 C 120.832,448.00, 128.00,440.832, 128.00,432.00l0.00-32.00 C 128.00,391.168, 120.832,384.00, 112.00,384.00l-32.00,0.00 
		C 71.168,384.00, 64.00,391.168, 64.00,400.00L 64.00,432.00 z M 448.00,32.00L 64.00,32.00 L 64.00,352.00 l 384.00,0.00 L 448.00,32.00 zM 164.768,123.488l 22.624-22.624c 6.24-6.24, 16.384-6.24, 22.624,0.00
		l 45.888,45.888l 46.048-46.048c 6.24-6.24, 16.384-6.24, 22.624,0.00l 22.624,22.624c 6.24,6.24, 6.24,16.384,0.00,22.624L 301.152,192.00l 46.048,46.048
		c 6.24,6.24, 6.24,16.384,0.00,22.624l-22.624,22.624c-6.24,6.24-16.384,6.24-22.624,0.00L 255.904,237.248L 210.016,283.136
		c-6.24,6.24-16.384,6.24-22.624,0.00L 164.768,260.512c-6.24-6.24-6.24-16.384,0.00-22.624L 210.656,192.00l-45.888-45.888
		C 158.528,139.872, 158.528,129.76, 164.768,123.488z"  />
<glyph unicode="&#xe3f7;" d="M 480.00,480.00L 160.00,480.00 C 142.40,480.00, 128.00,465.60, 128.00,448.00l0.00-96.00 L 32.00,352.00 
	C 14.40,352.00,0.00,337.60,0.00,320.00l0.00-320.00 c0.00-17.60, 14.40-32.00, 32.00-32.00l 320.00,0.00 c 17.60,0.00, 32.00,14.40, 32.00,32.00l0.00,96.00 l 96.00,0.00 c 17.60,0.00, 32.00,14.40, 32.00,32.00L 512.00,448.00 C 512.00,465.60, 497.60,480.00, 480.00,480.00z M 64.00,304.00
	C 64.00,312.832, 71.168,320.00, 80.00,320.00l 32.00,0.00 C 120.832,320.00, 128.00,312.832, 128.00,304.00l0.00-32.00 C 128.00,263.168, 120.832,256.00, 112.00,256.00l-32.00,0.00 C 71.168,256.00, 64.00,263.168, 64.00,272.00L 64.00,304.00 z M 320.00,32.00L 64.00,32.00 L 64.00,224.00 l 256.00,0.00 L 320.00,32.00 z M 448.00,160.00l-64.00,0.00 
	L 384.00,320.00 c0.00,17.60-14.40,32.00-32.00,32.00L 192.00,352.00 L 192.00,416.00 l 256.00,0.00 L 448.00,160.00 z"  />
<glyph unicode="&#xe3f8;" d="M 480.00,480.00L 32.00,480.00 C 14.40,480.00,0.00,465.60,0.00,448.00l0.00-448.00 c0.00-17.60, 14.40-32.00, 32.00-32.00
	l 448.00,0.00 c 17.60,0.00, 32.00,14.40, 32.00,32.00L 512.00,448.00 C 512.00,465.60, 497.60,480.00, 480.00,480.00z M 272.00,448.00l 32.00,0.00 C 312.832,448.00, 320.00,440.832, 320.00,432.00l0.00-32.00 C 320.00,391.168, 312.832,384.00, 304.00,384.00l-32.00,0.00 
	C 263.168,384.00, 256.00,391.168, 256.00,400.00l0.00,32.00 C 256.00,440.832, 263.168,448.00, 272.00,448.00z M 176.00,448.00l 32.00,0.00 C 216.832,448.00, 224.00,440.832, 224.00,432.00l0.00-32.00 C 224.00,391.168, 216.832,384.00, 208.00,384.00l-32.00,0.00 
	C 167.168,384.00, 160.00,391.168, 160.00,400.00l0.00,32.00 C 160.00,440.832, 167.168,448.00, 176.00,448.00z M 80.00,448.00l 32.00,0.00 C 120.832,448.00, 128.00,440.832, 128.00,432.00l0.00-32.00 C 128.00,391.168, 120.832,384.00, 112.00,384.00l-32.00,0.00 
	C 71.168,384.00, 64.00,391.168, 64.00,400.00l0.00,32.00 C 64.00,440.832, 71.168,448.00, 80.00,448.00z M 448.00,32.00L 64.00,32.00 L 64.00,352.00 l 384.00,0.00 L 448.00,32.00 z"  />
<glyph unicode="&#xe3f9;" d="M 480.00,480.00L 32.00,480.00 C 14.40,480.00,0.00,465.60,0.00,448.00l0.00-448.00 c0.00-17.60, 14.40-32.00, 32.00-32.00l 448.00,0.00 
		c 17.60,0.00, 32.00,14.40, 32.00,32.00L 512.00,448.00 C 512.00,465.60, 497.60,480.00, 480.00,480.00z M 256.00,432.00C 256.00,440.832, 263.168,448.00, 272.00,448.00l 32.00,0.00 C 312.832,448.00, 320.00,440.832, 320.00,432.00l0.00-32.00 C 320.00,391.168, 312.832,384.00, 304.00,384.00l-32.00,0.00 
		C 263.168,384.00, 256.00,391.168, 256.00,400.00L 256.00,432.00 z M 160.00,432.00C 160.00,440.832, 167.168,448.00, 176.00,448.00l 32.00,0.00 C 216.832,448.00, 224.00,440.832, 224.00,432.00l0.00-32.00 C 224.00,391.168, 216.832,384.00, 208.00,384.00l-32.00,0.00 
		C 167.168,384.00, 160.00,391.168, 160.00,400.00L 160.00,432.00 z M 64.00,432.00C 64.00,440.832, 71.168,448.00, 80.00,448.00l 32.00,0.00 C 120.832,448.00, 128.00,440.832, 128.00,432.00l0.00-32.00 C 128.00,391.168, 120.832,384.00, 112.00,384.00l-32.00,0.00 
		C 71.168,384.00, 64.00,391.168, 64.00,400.00L 64.00,432.00 z M 448.00,32.00L 64.00,32.00 L 64.00,352.00 l 384.00,0.00 L 448.00,32.00 zM 176.00,160.00l 160.00,0.00 c 8.832,0.00, 16.00,7.168, 16.00,16.00l0.00,32.00 
		C 352.00,216.832, 344.832,224.00, 336.00,224.00l-160.00,0.00 C 167.168,224.00, 160.00,216.832, 160.00,208.00l0.00-32.00 C 160.00,167.168, 167.168,160.00, 176.00,160.00z"  />
<glyph unicode="&#xe3fa;" d="M 480.00,480.00L 32.00,480.00 C 14.40,480.00,0.00,465.60,0.00,448.00l0.00-448.00 c0.00-17.60, 14.40-32.00, 32.00-32.00l 448.00,0.00 
		c 17.60,0.00, 32.00,14.40, 32.00,32.00L 512.00,448.00 C 512.00,465.60, 497.60,480.00, 480.00,480.00z M 256.00,432.00C 256.00,440.832, 263.168,448.00, 272.00,448.00l 32.00,0.00 C 312.832,448.00, 320.00,440.832, 320.00,432.00l0.00-32.00 C 320.00,391.168, 312.832,384.00, 304.00,384.00l-32.00,0.00 
		C 263.168,384.00, 256.00,391.168, 256.00,400.00L 256.00,432.00 z M 160.00,432.00C 160.00,440.832, 167.168,448.00, 176.00,448.00l 32.00,0.00 C 216.832,448.00, 224.00,440.832, 224.00,432.00l0.00-32.00 C 224.00,391.168, 216.832,384.00, 208.00,384.00l-32.00,0.00 
		C 167.168,384.00, 160.00,391.168, 160.00,400.00L 160.00,432.00 z M 64.00,432.00C 64.00,440.832, 71.168,448.00, 80.00,448.00l 32.00,0.00 C 120.832,448.00, 128.00,440.832, 128.00,432.00l0.00-32.00 C 128.00,391.168, 120.832,384.00, 112.00,384.00l-32.00,0.00 
		C 71.168,384.00, 64.00,391.168, 64.00,400.00L 64.00,432.00 z M 448.00,32.00L 64.00,32.00 L 64.00,352.00 l 384.00,0.00 L 448.00,32.00 zM 176.00,160.00L 224.00,160.00 l0.00-48.00 C 224.00,103.168, 231.168,96.00, 240.00,96.00l 32.00,0.00 
		C 280.832,96.00, 288.00,103.168, 288.00,112.00L 288.00,160.00 l 48.00,0.00 c 8.832,0.00, 16.00,7.168, 16.00,16.00l0.00,32.00 C 352.00,216.832, 344.832,224.00, 336.00,224.00L 288.00,224.00 L 288.00,272.00 C 288.00,280.832, 280.832,288.00, 272.00,288.00l-32.00,0.00 
		C 231.168,288.00, 224.00,280.832, 224.00,272.00L 224.00,224.00 L 176.00,224.00 C 167.168,224.00, 160.00,216.832, 160.00,208.00l0.00-32.00 C 160.00,167.168, 167.168,160.00, 176.00,160.00z"  />
<glyph unicode="&#xe3fb;" d="M 480.00,480.00L 32.00,480.00 C 14.40,480.00,0.00,465.60,0.00,448.00l0.00-448.00 c0.00-17.60, 14.40-32.00, 32.00-32.00l 448.00,0.00 c 17.60,0.00, 32.00,14.40, 32.00,32.00L 512.00,448.00 C 512.00,465.60, 497.60,480.00, 480.00,480.00z
			 M 272.00,448.00l 32.00,0.00 C 312.832,448.00, 320.00,440.832, 320.00,432.00l0.00-32.00 C 320.00,391.168, 312.832,384.00, 304.00,384.00l-32.00,0.00 C 263.168,384.00, 256.00,391.168, 256.00,400.00l0.00,32.00 C 256.00,440.832, 263.168,448.00, 272.00,448.00z M 176.00,448.00l 32.00,0.00 
			C 216.832,448.00, 224.00,440.832, 224.00,432.00l0.00-32.00 C 224.00,391.168, 216.832,384.00, 208.00,384.00l-32.00,0.00 C 167.168,384.00, 160.00,391.168, 160.00,400.00l0.00,32.00 C 160.00,440.832, 167.168,448.00, 176.00,448.00z M 80.00,448.00l 32.00,0.00 
			C 120.832,448.00, 128.00,440.832, 128.00,432.00l0.00-32.00 C 128.00,391.168, 120.832,384.00, 112.00,384.00l-32.00,0.00 C 71.168,384.00, 64.00,391.168, 64.00,400.00l0.00,32.00 C 64.00,440.832, 71.168,448.00, 80.00,448.00z M 448.00,32.00L 64.00,32.00 L 64.00,352.00 l 384.00,0.00 L 448.00,32.00 zM 164.768,123.488l 22.624-22.624c 6.24-6.24, 16.384-6.24, 22.624,0.00
		l 45.888,45.888l 46.048-46.048c 6.24-6.24, 16.384-6.24, 22.624,0.00l 22.624,22.624c 6.24,6.24, 6.24,16.384,0.00,22.624L 301.152,192.00l 46.048,46.048
		c 6.24,6.24, 6.24,16.384,0.00,22.624l-22.624,22.624c-6.24,6.24-16.384,6.24-22.624,0.00L 255.904,237.248L 210.016,283.136
		c-6.24,6.24-16.384,6.24-22.624,0.00L 164.768,260.512c-6.24-6.24-6.24-16.384,0.00-22.624L 210.656,192.00l-45.888-45.888
		C 158.528,139.872, 158.528,129.76, 164.768,123.488z"  />
<glyph unicode="&#xe3fc;" d="M 480.00,416.00L 224.00,416.00 L 224.00,448.00 c0.00,17.60-14.40,32.00-32.00,32.00L 32.00,480.00 C 14.40,480.00,0.00,465.60,0.00,448.00l0.00-448.00 c0.00-17.60, 14.40-32.00, 32.00-32.00l 448.00,0.00 
	c 17.60,0.00, 32.00,14.40, 32.00,32.00L 512.00,384.00 C 512.00,401.60, 497.60,416.00, 480.00,416.00z M 448.00,32.00L 64.00,32.00 L 64.00,416.00 l 96.00,0.00 l0.00-48.00 C 160.00,359.168, 167.168,352.00, 176.00,352.00L 448.00,352.00 L 448.00,32.00 z"  />
<glyph unicode="&#xe3fd;" d="M 160.00,208.00l0.00-32.00 C 160.00,167.168, 167.168,160.00, 176.00,160.00L 224.00,160.00 l0.00-48.00 C 224.00,103.168, 231.168,96.00, 240.00,96.00l 32.00,0.00 C 280.832,96.00, 288.00,103.168, 288.00,112.00L 288.00,160.00 
		l 48.00,0.00 c 8.832,0.00, 16.00,7.168, 16.00,16.00l0.00,32.00 C 352.00,216.832, 344.832,224.00, 336.00,224.00L 288.00,224.00 L 288.00,272.00 C 288.00,280.832, 280.832,288.00, 272.00,288.00l-32.00,0.00 C 231.168,288.00, 224.00,280.832, 224.00,272.00L 224.00,224.00 L 176.00,224.00 
		C 167.168,224.00, 160.00,216.832, 160.00,208.00zM 480.00,416.00L 224.00,416.00 L 224.00,448.00 c0.00,17.60-14.40,32.00-32.00,32.00L 32.00,480.00 C 14.40,480.00,0.00,465.60,0.00,448.00l0.00-448.00 c0.00-17.60, 14.40-32.00, 32.00-32.00l 448.00,0.00 c 17.60,0.00, 32.00,14.40, 32.00,32.00L 512.00,384.00 
		C 512.00,401.60, 497.60,416.00, 480.00,416.00z M 448.00,32.00L 64.00,32.00 L 64.00,416.00 l 96.00,0.00 l0.00-48.00 C 160.00,359.168, 167.168,352.00, 176.00,352.00L 448.00,352.00 L 448.00,32.00 z"  />
<glyph unicode="&#xe3fe;" d="M 160.00,208.00l0.00-32.00 C 160.00,167.168, 167.168,160.00, 176.00,160.00l 160.00,0.00 c 8.832,0.00, 16.00,7.168, 16.00,16.00l0.00,32.00 C 352.00,216.832, 344.832,224.00, 336.00,224.00l-160.00,0.00 
		C 167.168,224.00, 160.00,216.832, 160.00,208.00zM 480.00,416.00L 224.00,416.00 L 224.00,448.00 c0.00,17.60-14.40,32.00-32.00,32.00L 32.00,480.00 C 14.40,480.00,0.00,465.60,0.00,448.00l0.00-448.00 c0.00-17.60, 14.40-32.00, 32.00-32.00l 448.00,0.00 c 17.60,0.00, 32.00,14.40, 32.00,32.00L 512.00,384.00 
		C 512.00,401.60, 497.60,416.00, 480.00,416.00z M 448.00,32.00L 64.00,32.00 L 64.00,416.00 l 96.00,0.00 l0.00-48.00 C 160.00,359.168, 167.168,352.00, 176.00,352.00L 448.00,352.00 L 448.00,32.00 z"  />
<glyph unicode="&#xe3ff;" d="M 480.00,416.00L 224.00,416.00 L 224.00,448.00 c0.00,17.60-14.40,32.00-32.00,32.00L 32.00,480.00 C 14.40,480.00,0.00,465.60,0.00,448.00l0.00-448.00 
		c0.00-17.60, 14.40-32.00, 32.00-32.00l 448.00,0.00 c 17.60,0.00, 32.00,14.40, 32.00,32.00L 512.00,384.00 C 512.00,401.60, 497.60,416.00, 480.00,416.00z M 448.00,32.00L 64.00,32.00 L 64.00,416.00 l 96.00,0.00 l0.00-48.00 C 160.00,359.168, 167.168,352.00, 176.00,352.00L 448.00,352.00 L 448.00,32.00 zM 169.76,192.00L 224.00,192.00 l0.00-80.00 C 224.00,103.20, 231.168,96.00, 240.00,96.00l 32.00,0.00 
		C 280.832,96.00, 288.00,103.20, 288.00,112.00L 288.00,192.00 l 54.24,0.00 c 9.504,0.00, 12.608,8.48, 6.88,16.00L 266.336,314.304C 260.64,321.824, 251.36,321.92, 245.664,314.432L 162.88,208.00
		C 157.152,200.448, 160.256,192.00, 169.76,192.00z"  />
<glyph unicode="&#xe400;" d="M 480.00,416.00L 224.00,416.00 L 224.00,448.00 c0.00,17.60-14.40,32.00-32.00,32.00L 32.00,480.00 C 14.40,480.00,0.00,465.60,0.00,448.00l0.00-448.00 
		c0.00-17.60, 14.40-32.00, 32.00-32.00l 448.00,0.00 c 17.60,0.00, 32.00,14.40, 32.00,32.00L 512.00,384.00 C 512.00,401.60, 497.60,416.00, 480.00,416.00z M 448.00,32.00L 64.00,32.00 L 64.00,416.00 l 96.00,0.00 l0.00-48.00 C 160.00,359.168, 167.168,352.00, 176.00,352.00L 448.00,352.00 L 448.00,32.00 zM 162.88,208.00l 82.784-106.304c 5.728-7.52, 14.976-7.616, 20.672-0.128
		L 349.12,208.00C 354.848,215.552, 351.744,224.00, 342.24,224.00L 288.00,224.00 L 288.00,303.968 C 288.00,312.80, 280.832,320.00, 272.00,320.00l-32.00,0.00 C 231.168,320.00, 224.00,312.80, 224.00,303.968L 224.00,224.00 L 169.76,224.00 
		C 160.256,224.00, 157.152,215.52, 162.88,208.00z"  />
<glyph unicode="&#xe401;" d="M 480.00,416.00L 224.00,416.00 L 224.00,448.00 c0.00,17.60-14.40,32.00-32.00,32.00L 32.00,480.00 C 14.40,480.00,0.00,465.60,0.00,448.00l0.00-448.00 c0.00-17.60, 14.40-32.00, 32.00-32.00l 448.00,0.00 
	c 17.60,0.00, 32.00,14.40, 32.00,32.00L 512.00,384.00 C 512.00,401.60, 497.60,416.00, 480.00,416.00z M 448.00,192.00l0.00-96.00 l0.00-64.00 L 64.00,32.00 l0.00,64.00 L 64.00,256.00 l 384.00,0.00 L 448.00,192.00 z M 448.00,320.00L 64.00,320.00 L 64.00,416.00 l 96.00,0.00 l0.00-48.00 C 160.00,359.168, 167.168,352.00, 176.00,352.00L 448.00,352.00 L 448.00,320.00 z"  />
<glyph unicode="&#xe402;" d="M 480.00,416.00L 224.00,416.00 L 224.00,448.00 c0.00,17.60-14.40,32.00-32.00,32.00L 32.00,480.00 C 14.40,480.00,0.00,465.60,0.00,448.00l0.00-160.00 l0.00-192.00 l0.00-96.00 c0.00-17.60, 14.40-32.00, 32.00-32.00l 448.00,0.00 
	c 17.60,0.00, 32.00,14.40, 32.00,32.00l0.00,96.00 L 512.00,224.00 L 512.00,384.00 C 512.00,401.60, 497.60,416.00, 480.00,416.00z M 448.00,32.00L 64.00,32.00 l0.00,64.00 L 64.00,256.00 l 96.00,0.00 l0.00-48.00 C 160.00,199.168, 167.168,192.00, 176.00,192.00L 224.00,192.00 l 224.00,0.00 l0.00-96.00 L 448.00,32.00 z M 224.00,256.00L 224.00,288.00 c0.00,17.60-14.40,32.00-32.00,32.00L 64.00,320.00 
	L 64.00,416.00 l 96.00,0.00 l0.00-48.00 C 160.00,359.168, 167.168,352.00, 176.00,352.00L 224.00,352.00 l 224.00,0.00 l0.00-96.00 L 224.00,256.00 z"  />
<glyph unicode="&#xe403;" d="M 480.00,256.00L 224.00,256.00 L 224.00,284.80 C 224.00,302.40, 212.80,320.00, 195.20,320.00L 64.00,320.00 L 64.00,416.00 l 96.00,0.00 l0.00-48.00 
		C 160.00,359.168, 170.368,352.00, 179.20,352.00L 268.80,352.00 C 277.632,352.00, 288.00,359.168, 288.00,368.00l0.00,32.00 C 288.00,408.832, 277.632,416.00, 268.80,416.00L 224.00,416.00 L 224.00,444.80 C 224.00,462.40, 212.80,480.00, 195.20,480.00L 32.00,480.00 C 14.40,480.00,0.00,462.40,0.00,444.80l0.00-160.00 L0.00,96.00 
		l0.00-102.40 C0.00-24.00, 14.40-32.00, 32.00-32.00l 448.00,0.00 c 17.60,0.00, 32.00,8.00, 32.00,25.60L 512.00,220.80 C 512.00,238.464, 497.696,256.00, 480.00,256.00z M 448.00,96.00l0.00-64.00 L 64.00,32.00 l0.00,64.00 L 64.00,256.00 l 96.00,0.00 l0.00-51.20 C 160.00,195.968, 170.368,192.00, 179.20,192.00l 16.00,0.00 
		l 16.00,0.00 l 188.80,0.00 L 448.00,192.00 L 448.00,96.00 zM 496.00,416.00L 448.00,416.00 L 448.00,464.00 C 448.00,472.832, 440.832,480.00, 432.00,480.00l-32.00,0.00 
		C 391.168,480.00, 384.00,472.832, 384.00,464.00L 384.00,416.00 l-48.00,0.00 C 327.168,416.00, 320.00,408.832, 320.00,400.00l0.00-32.00 C 320.00,359.168, 327.168,352.00, 336.00,352.00L 384.00,352.00 l0.00-48.00 C 384.00,295.168, 391.168,288.00, 400.00,288.00l 32.00,0.00 
		C 440.832,288.00, 448.00,295.168, 448.00,304.00L 448.00,352.00 l 48.00,0.00 C 504.832,352.00, 512.00,359.168, 512.00,368.00l0.00,32.00 C 512.00,408.832, 504.832,416.00, 496.00,416.00z"  />
<glyph unicode="&#xe404;" d="M 32.00,448.00l0.00-448.00 c0.00-17.696, 14.304-32.00, 32.00-32.00l 384.00,0.00 c 17.696,0.00, 32.00,14.304, 32.00,32.00L 480.00,336.00 
	c0.00,8.832-5.056,21.056-11.328,27.328l-105.376,105.376C 357.056,474.944, 344.832,480.00, 336.00,480.00L 64.00,480.00 C 46.304,480.00, 32.00,465.696, 32.00,448.00z M 96.00,32.00L 96.00,416.00 l 192.00,0.00 l0.00-112.00 
	C 288.00,295.168, 295.168,288.00, 304.00,288.00L 416.00,288.00 l0.00-256.00 L 96.00,32.00 z"  />
<glyph unicode="&#xe405;" d="M 128.00-32.00l 320.00,0.00 c 17.696,0.00, 32.00,14.304, 32.00,32.00L 480.00,448.00 c0.00,17.696-14.304,32.00-32.00,32.00L 64.00,480.00 C 46.304,480.00, 32.00,465.696, 32.00,448.00l0.00-384.00 L 128.00-32.00z M 416.00,416.00l0.00-384.00 L 192.00,32.00 
		l0.00,80.00 C 192.00,120.832, 184.832,128.00, 176.00,128.00L 96.00,128.00 L 96.00,416.00 L 416.00,416.00 zM 144.00,224.00l 224.00,0.00 C 376.832,224.00, 384.00,231.168, 384.00,240.00l0.00,32.00 C 384.00,280.832, 376.832,288.00, 368.00,288.00l-224.00,0.00 C 135.168,288.00, 128.00,280.832, 128.00,272.00l0.00-32.00 
		C 128.00,231.168, 135.168,224.00, 144.00,224.00zM 144.00,320.00l 224.00,0.00 C 376.832,320.00, 384.00,327.168, 384.00,336.00l0.00,32.00 C 384.00,376.832, 376.832,384.00, 368.00,384.00l-224.00,0.00 C 135.168,384.00, 128.00,376.832, 128.00,368.00l0.00-32.00 
		C 128.00,327.168, 135.168,320.00, 144.00,320.00z"  />
<glyph unicode="&#xe406;" d="M 368.00,480.00L 64.00,480.00 C 46.304,480.00, 32.00,465.696, 32.00,448.00l0.00-448.00 c0.00-17.696, 14.304-32.00, 32.00-32.00l 384.00,0.00 c 17.696,0.00, 32.00,14.304, 32.00,32.00L 480.00,368.00 
		c0.00,8.832-5.056,21.056-11.328,27.328l-73.376,73.376C 389.056,474.944, 376.832,480.00, 368.00,480.00z M 96.00,32.00L 96.00,416.00 l 224.00,0.00 l0.00-80.00 C 320.00,327.168, 327.168,320.00, 336.00,320.00L 416.00,320.00 l0.00-288.00 L 96.00,32.00 zM 368.00,288.00l-224.00,0.00 C 135.168,288.00, 128.00,280.832, 128.00,272.00l0.00-32.00 C 128.00,231.168, 135.168,224.00, 144.00,224.00l 224.00,0.00 C 376.832,224.00, 384.00,231.168, 384.00,240.00l0.00,32.00 
		C 384.00,280.832, 376.832,288.00, 368.00,288.00zM 272.00,384.00l-128.00,0.00 C 135.168,384.00, 128.00,376.832, 128.00,368.00l0.00-32.00 C 128.00,327.168, 135.168,320.00, 144.00,320.00l 128.00,0.00 C 280.832,320.00, 288.00,327.168, 288.00,336.00l0.00,32.00 
		C 288.00,376.832, 280.832,384.00, 272.00,384.00zM 368.00,192.00l-224.00,0.00 C 135.168,192.00, 128.00,184.832, 128.00,176.00l0.00-32.00 C 128.00,135.168, 135.168,128.00, 144.00,128.00l 224.00,0.00 c 8.832,0.00, 16.00,7.168, 16.00,16.00l0.00,32.00 
		C 384.00,184.832, 376.832,192.00, 368.00,192.00z"  />
<glyph unicode="&#xe407;" d="M 368.00,480.00L 64.00,480.00 C 46.304,480.00, 32.00,465.696, 32.00,448.00l0.00-448.00 c0.00-17.696, 14.304-32.00, 32.00-32.00l 384.00,0.00 c 17.696,0.00, 32.00,14.304, 32.00,32.00L 480.00,368.00 
		c0.00,8.832-5.056,21.056-11.328,27.328l-73.376,73.376C 389.056,474.944, 376.832,480.00, 368.00,480.00z M 96.00,32.00L 96.00,416.00 l 224.00,0.00 l0.00-80.00 C 320.00,327.168, 327.168,320.00, 336.00,320.00L 416.00,320.00 l0.00-288.00 L 96.00,32.00 zM 272.00,384.00l-128.00,0.00 C 135.168,384.00, 128.00,376.832, 128.00,368.00l0.00-32.00 C 128.00,327.168, 135.168,320.00, 144.00,320.00l 128.00,0.00 C 280.832,320.00, 288.00,327.168, 288.00,336.00l0.00,32.00 
		C 288.00,376.832, 280.832,384.00, 272.00,384.00zM 144.00,256.00l 224.00,0.00 C 376.832,256.00, 384.00,263.168, 384.00,272.00l0.00,0.00C 384.00,280.832, 376.832,288.00, 368.00,288.00l-224.00,0.00 C 135.168,288.00, 128.00,280.832, 128.00,272.00l0.00,0.00
		C 128.00,263.168, 135.168,256.00, 144.00,256.00zM 144.00,192.00l 224.00,0.00 C 376.832,192.00, 384.00,199.168, 384.00,208.00l0.00,0.00C 384.00,216.832, 376.832,224.00, 368.00,224.00l-224.00,0.00 C 135.168,224.00, 128.00,216.832, 128.00,208.00l0.00,0.00
		C 128.00,199.168, 135.168,192.00, 144.00,192.00zM 144.00,128.00l 224.00,0.00 c 8.832,0.00, 16.00,7.168, 16.00,16.00l0.00,0.00c0.00,8.832-7.168,16.00-16.00,16.00l-224.00,0.00 C 135.168,160.00, 128.00,152.832, 128.00,144.00
		l0.00,0.00C 128.00,135.168, 135.168,128.00, 144.00,128.00zM 144.00,64.00l 224.00,0.00 c 8.832,0.00, 16.00,7.168, 16.00,16.00l0.00,0.00c0.00,8.832-7.168,16.00-16.00,16.00l-224.00,0.00 C 135.168,96.00, 128.00,88.832, 128.00,80.00
		l0.00,0.00C 128.00,71.168, 135.168,64.00, 144.00,64.00z"  />
<glyph unicode="&#xe408;" d="M 336.00,480.00L 192.00,480.00 C 174.304,480.00, 160.00,465.696, 160.00,448.00l0.00-64.00 L 64.00,384.00 C 46.40,384.00, 32.00,369.60, 32.00,352.00l0.00-352.00 
	c0.00-17.60, 14.40-32.00, 32.00-32.00l 288.00,0.00 c 17.60,0.00, 32.00,14.40, 32.00,32.00l0.00,64.00 l 64.00,0.00 c 17.696,0.00, 32.00,14.304, 32.00,32.00L 480.00,336.00 c0.00,8.832-5.056,21.056-11.328,27.328l-105.376,105.376
	C 357.056,474.944, 344.832,480.00, 336.00,480.00z M 320.00,32.00L 96.00,32.00 L 96.00,320.00 l 64.00,0.00 l0.00-224.00 c0.00-17.696, 14.304-32.00, 32.00-32.00l 128.00,0.00 L 320.00,32.00 z M 224.00,128.00L 224.00,416.00 l 96.00,0.00 l0.00-80.00 C 320.00,327.168, 327.168,320.00, 336.00,320.00L 416.00,320.00 l0.00-192.00 L 224.00,128.00 z"  />
<glyph unicode="&#xe409;" d="M 468.672,363.328l-105.376,105.376C 357.056,474.944, 344.832,480.00, 336.00,480.00L 64.00,480.00 
		C 46.304,480.00, 32.00,465.696, 32.00,448.00l0.00-448.00 c0.00-17.696, 14.304-32.00, 32.00-32.00l 384.00,0.00 c 17.696,0.00, 32.00,14.304, 32.00,32.00L 480.00,336.00 C 480.00,344.832, 474.944,357.056, 468.672,363.328z M 416.00,32.00L 96.00,32.00 L 96.00,416.00 l 192.00,0.00 l0.00-112.00 
		C 288.00,295.168, 295.168,288.00, 304.00,288.00L 416.00,288.00 L 416.00,32.00 zM 160.00,176.00l0.00-32.00 C 160.00,135.168, 167.168,128.00, 176.00,128.00l 160.00,0.00 
		c 8.832,0.00, 16.00,7.168, 16.00,16.00l0.00,32.00 C 352.00,184.832, 344.832,192.00, 336.00,192.00l-160.00,0.00 C 167.168,192.00, 160.00,184.832, 160.00,176.00z"  />
<glyph unicode="&#xe40a;" d="M 468.672,363.328l-105.376,105.376C 357.056,474.944, 344.832,480.00, 336.00,480.00L 64.00,480.00 
		C 46.304,480.00, 32.00,465.696, 32.00,448.00l0.00-448.00 c0.00-17.696, 14.304-32.00, 32.00-32.00l 384.00,0.00 c 17.696,0.00, 32.00,14.304, 32.00,32.00L 480.00,336.00 C 480.00,344.832, 474.944,357.056, 468.672,363.328z M 416.00,32.00L 96.00,32.00 L 96.00,416.00 l 192.00,0.00 l0.00-112.00 
		C 288.00,295.168, 295.168,288.00, 304.00,288.00L 416.00,288.00 L 416.00,32.00 zM 288.00,240.00C 288.00,248.832, 280.832,256.00, 272.00,256.00l-32.00,0.00 C 231.168,256.00, 224.00,248.832, 224.00,240.00L 224.00,192.00 L 176.00,192.00 
		C 167.168,192.00, 160.00,184.832, 160.00,176.00l0.00-32.00 C 160.00,135.168, 167.168,128.00, 176.00,128.00L 224.00,128.00 l0.00-48.00 C 224.00,71.168, 231.168,64.00, 240.00,64.00l 32.00,0.00 C 280.832,64.00, 288.00,71.168, 288.00,80.00L 288.00,128.00 l 48.00,0.00 
		c 8.832,0.00, 16.00,7.168, 16.00,16.00l0.00,32.00 C 352.00,184.832, 344.832,192.00, 336.00,192.00L 288.00,192.00 L 288.00,240.00 z"  />
<glyph unicode="&#xe40b;" d="M 468.672,363.328l-105.376,105.376C 357.056,474.944, 344.832,480.00, 336.00,480.00L 64.00,480.00 
		C 46.304,480.00, 32.00,465.696, 32.00,448.00l0.00-448.00 c0.00-17.696, 14.304-32.00, 32.00-32.00l 384.00,0.00 c 17.696,0.00, 32.00,14.304, 32.00,32.00L 480.00,336.00 C 480.00,344.832, 474.944,357.056, 468.672,363.328z M 416.00,32.00L 96.00,32.00 L 96.00,416.00 l 192.00,0.00 l0.00-112.00 
		C 288.00,295.168, 295.168,288.00, 304.00,288.00L 416.00,288.00 L 416.00,32.00 zM 255.904,205.248L 210.016,251.136c-6.24,6.24-16.384,6.24-22.624,0.00
		L 164.768,228.512c-6.24-6.24-6.24-16.384,0.00-22.624L 210.656,160.00l-45.888-45.888c-6.24-6.24-6.24-16.384,0.00-22.624l 22.624-22.624
		c 6.24-6.24, 16.384-6.24, 22.624,0.00l 45.888,45.888l 46.048-46.048c 6.24-6.24, 16.384-6.24, 22.624,0.00l 22.624,22.624
		c 6.24,6.24, 6.24,16.384,0.00,22.624L 301.152,160.00l 46.048,46.048c 6.24,6.24, 6.24,16.384,0.00,22.624l-22.624,22.624
		c-6.24,6.24-16.384,6.24-22.624,0.00L 255.904,205.248z"  />
<glyph unicode="&#xe40c;" d="M 468.672,363.328l-105.376,105.376C 357.056,474.944, 344.832,480.00, 336.00,480.00L 64.00,480.00 
		C 46.304,480.00, 32.00,465.696, 32.00,448.00l0.00-448.00 c0.00-17.696, 14.304-32.00, 32.00-32.00l 384.00,0.00 c 17.696,0.00, 32.00,14.304, 32.00,32.00L 480.00,336.00 C 480.00,344.832, 474.944,357.056, 468.672,363.328z M 416.00,32.00L 96.00,32.00 L 96.00,416.00 l 192.00,0.00 l0.00-112.00 
		C 288.00,295.168, 295.168,288.00, 304.00,288.00L 416.00,288.00 L 416.00,32.00 zM 213.664,282.432L 130.88,176.00C 125.152,168.448, 128.256,160.00, 137.76,160.00L 192.00,160.00 l0.00-80.00 
		C 192.00,71.20, 199.168,64.00, 208.00,64.00l 32.00,0.00 C 248.832,64.00, 256.00,71.20, 256.00,80.00L 256.00,160.00 l 54.24,0.00 c 9.504,0.00, 12.608,8.48, 6.88,16.00L 234.336,282.304
		C 228.64,289.824, 219.36,289.952, 213.664,282.432z"  />
<glyph unicode="&#xe40d;" d="M 468.672,363.328l-105.376,105.376C 357.056,474.944, 344.832,480.00, 336.00,480.00L 64.00,480.00 
		C 46.304,480.00, 32.00,465.696, 32.00,448.00l0.00-448.00 c0.00-17.696, 14.304-32.00, 32.00-32.00l 384.00,0.00 c 17.696,0.00, 32.00,14.304, 32.00,32.00L 480.00,336.00 C 480.00,344.832, 474.944,357.056, 468.672,363.328z M 416.00,32.00L 96.00,32.00 L 96.00,416.00 l 192.00,0.00 l0.00-112.00 
		C 288.00,295.168, 295.168,288.00, 304.00,288.00L 416.00,288.00 L 416.00,32.00 zM 256.00,272.032C 256.00,280.864, 248.896,288.00, 240.064,288.00l-32.00,0.00 C 199.232,288.00, 192.00,280.864, 192.00,272.032
		L 192.00,192.00 L 137.824,192.00 C 128.32,192.00, 125.216,183.552, 130.944,176.032l 82.784-106.272c 5.728-7.552, 14.976-7.616, 20.672-0.128L 317.184,176.00C 322.912,183.552, 319.808,192.00, 310.304,192.00
		L 256.00,192.00 L 256.00,272.032 z"  />
<glyph unicode="&#xe40e;" d="M 468.672,363.328l-105.376,105.376C 357.056,474.944, 344.832,480.00, 336.00,480.00L 64.00,480.00 
		C 46.304,480.00, 32.00,465.696, 32.00,448.00l0.00-144.00 C 32.00,295.168, 39.168,288.00, 48.00,288.00l 32.00,0.00 C 88.832,288.00, 96.00,295.168, 96.00,304.00L 96.00,416.00 l 192.00,0.00 l0.00-112.00 C 288.00,295.168, 295.168,288.00, 304.00,288.00L 416.00,288.00 l0.00-256.00 L 96.00,32.00 l0.00,48.00 
		C 96.00,88.832, 88.832,96.00, 80.00,96.00l-32.00,0.00 C 39.168,96.00, 32.00,88.832, 32.00,80.00L 32.00,0.00 c0.00-17.696, 14.304-32.00, 32.00-32.00l 384.00,0.00 c 17.696,0.00, 32.00,14.304, 32.00,32.00L 480.00,336.00 
		C 480.00,344.832, 474.944,357.056, 468.672,363.328zM 48.032,160.00L 160.00,160.00 l0.00-54.24 c0.00-9.504, 8.48-12.608, 16.00-6.88l 106.304,82.784
		c 7.52,5.728, 7.616,14.976, 0.128,20.672L 176.00,285.12C 168.448,290.848, 160.00,287.744, 160.00,278.24L 160.00,224.00 L 48.032,224.00 C 39.20,224.00, 32.00,216.832, 32.00,208.00l0.00-32.00 
		C 32.00,167.168, 39.20,160.00, 48.032,160.00z"  />
<glyph unicode="&#xe40f;" d="M 468.672,363.328l-105.376,105.376C 357.056,474.944, 344.832,480.00, 336.00,480.00L 64.00,480.00 
		C 46.304,480.00, 32.00,465.696, 32.00,448.00l0.00-144.00 C 32.00,295.168, 39.168,288.00, 48.00,288.00l 32.00,0.00 C 88.832,288.00, 96.00,295.168, 96.00,304.00L 96.00,416.00 l 192.00,0.00 l0.00-112.00 C 288.00,295.168, 295.168,288.00, 304.00,288.00L 416.00,288.00 l0.00-256.00 L 96.00,32.00 l0.00,48.00 
		C 96.00,88.832, 88.832,96.00, 80.00,96.00l-32.00,0.00 C 39.168,96.00, 32.00,88.832, 32.00,80.00L 32.00,0.00 c0.00-17.696, 14.304-32.00, 32.00-32.00l 384.00,0.00 c 17.696,0.00, 32.00,14.304, 32.00,32.00L 480.00,336.00 
		C 480.00,344.832, 474.944,357.056, 468.672,363.328zM 144.00,285.12L 37.696,202.336C 30.144,196.64, 30.048,187.36, 37.568,181.664
		L 144.00,98.88C 151.552,93.152, 160.00,96.256, 160.00,105.76L 160.00,160.00 l 111.968,0.00 C 280.80,160.00, 288.00,167.168, 288.00,176.00l0.00,32.00 C 288.00,216.832, 280.80,224.00, 271.968,224.00L 160.00,224.00 L 160.00,278.24 
		C 160.00,287.744, 151.52,290.848, 144.00,285.12z"  />
<glyph unicode="&#xe410;" d="M 448.00,448.00l-96.00,0.00 c0.00,8.832-14.304,32.00-32.00,32.00L 192.00,480.00 
	C 174.304,480.00, 160.00,456.832, 160.00,448.00L 64.00,448.00 C 46.304,448.00, 32.00,433.696, 32.00,416.00l0.00-416.00 c0.00-17.696, 14.304-32.00, 32.00-32.00l 384.00,0.00 c 17.696,0.00, 32.00,14.304, 32.00,32.00L 480.00,416.00 C 480.00,433.696, 465.696,448.00, 448.00,448.00z M 416.00,32.00L 96.00,32.00 L 96.00,384.00 l 64.00,0.00 
	c0.00-17.696, 14.304-32.00, 32.00-32.00l 128.00,0.00 c 17.696,0.00, 32.00,14.304, 32.00,32.00l 64.00,0.00 L 416.00,32.00 z"  />
<glyph unicode="&#xe411;" d="M 448.00,448.00l-96.00,0.00 c0.00,8.832-14.304,32.00-32.00,32.00L 192.00,480.00 C 174.304,480.00, 160.00,456.832, 160.00,448.00L 64.00,448.00 C 46.304,448.00, 32.00,433.696, 32.00,416.00l0.00-416.00 c0.00-17.696, 14.304-32.00, 32.00-32.00
		l 384.00,0.00 c 17.696,0.00, 32.00,14.304, 32.00,32.00L 480.00,416.00 C 480.00,433.696, 465.696,448.00, 448.00,448.00z M 416.00,32.00L 96.00,32.00 L 96.00,384.00 l 64.00,0.00 c0.00-17.696, 14.304-32.00, 32.00-32.00l 128.00,0.00 c 17.696,0.00, 32.00,14.304, 32.00,32.00l 64.00,0.00 L 416.00,32.00 zM 336.00,288.00l-160.00,0.00 C 167.168,288.00, 160.00,280.832, 160.00,272.00l0.00-32.00 C 160.00,231.168, 167.168,224.00, 176.00,224.00l 160.00,0.00 C 344.832,224.00, 352.00,231.168, 352.00,240.00l0.00,32.00 
		C 352.00,280.832, 344.832,288.00, 336.00,288.00zM 336.00,192.00l-160.00,0.00 C 167.168,192.00, 160.00,184.832, 160.00,176.00l0.00-32.00 C 160.00,135.168, 167.168,128.00, 176.00,128.00l 160.00,0.00 c 8.832,0.00, 16.00,7.168, 16.00,16.00l0.00,32.00 
		C 352.00,184.832, 344.832,192.00, 336.00,192.00z"  />
<glyph unicode="&#xe412;" d="M 128.00,304.00l0.00-32.00 C 128.00,263.168, 135.168,256.00, 144.00,256.00l 224.00,0.00 C 376.832,256.00, 384.00,263.168, 384.00,272.00l0.00,32.00 
		C 384.00,312.832, 376.832,320.00, 368.00,320.00l-224.00,0.00 C 135.168,320.00, 128.00,312.832, 128.00,304.00zM 368.00,224.00l-224.00,0.00 C 135.168,224.00, 128.00,216.832, 128.00,208.00l0.00-32.00 C 128.00,167.168, 135.168,160.00, 144.00,160.00l 224.00,0.00 
		c 8.832,0.00, 16.00,7.168, 16.00,16.00l0.00,32.00 C 384.00,216.832, 376.832,224.00, 368.00,224.00zM 368.00,128.00l-224.00,0.00 C 135.168,128.00, 128.00,120.832, 128.00,112.00l0.00-32.00 
		C 128.00,71.168, 135.168,64.00, 144.00,64.00l 224.00,0.00 c 8.832,0.00, 16.00,7.168, 16.00,16.00l0.00,32.00 C 384.00,120.832, 376.832,128.00, 368.00,128.00zM 448.00,448.00l-96.00,0.00 c0.00,8.832-14.304,32.00-32.00,32.00L 192.00,480.00 C 174.304,480.00, 160.00,456.832, 160.00,448.00L 64.00,448.00 
		C 46.304,448.00, 32.00,433.696, 32.00,416.00l0.00-416.00 c0.00-17.696, 14.304-32.00, 32.00-32.00l 384.00,0.00 c 17.696,0.00, 32.00,14.304, 32.00,32.00L 480.00,416.00 C 480.00,433.696, 465.696,448.00, 448.00,448.00z M 416.00,32.00L 96.00,32.00 L 96.00,384.00 l 64.00,0.00 c0.00-17.696, 14.304-32.00, 32.00-32.00
		l 128.00,0.00 c 17.696,0.00, 32.00,14.304, 32.00,32.00l 64.00,0.00 L 416.00,32.00 z"  />
<glyph unicode="&#xe413;" d="M 192.00,480.00C 174.304,480.00, 160.00,456.832, 160.00,448.00l0.00,0.00L 64.00,448.00 C 46.304,448.00, 32.00,433.696, 32.00,416.00l0.00-416.00 
		c0.00-17.696, 14.304-32.00, 32.00-32.00l 384.00,0.00 c 17.696,0.00, 32.00,14.304, 32.00,32.00L 480.00,416.00 c0.00,17.696-14.304,32.00-32.00,32.00l-96.00,0.00 c0.00,0.00,0.00-8.832,0.00,0.00s-14.304,32.00-32.00,32.00L 192.00,480.00 z M 224.00,416.00l 64.00,0.00 l0.00-32.00 L 224.00,384.00 L 224.00,416.00 z M 96.00,32.00L 96.00,384.00 l 64.00,0.00 l0.00-32.00 
		c0.00-17.696, 14.304-32.00, 32.00-32.00l 128.00,0.00 c 17.696,0.00, 32.00,14.304, 32.00,32.00L 352.00,384.00 l 64.00,0.00 l0.00-352.00 L 96.00,32.00 z"  />
<glyph unicode="&#xe414;" d="M 448.00,448.00l-96.00,0.00 c0.00,8.832-14.304,32.00-32.00,32.00L 192.00,480.00 C 174.304,480.00, 160.00,456.832, 160.00,448.00L 64.00,448.00 
		C 46.304,448.00, 32.00,433.696, 32.00,416.00l0.00-416.00 c0.00-17.696, 14.304-32.00, 32.00-32.00l 384.00,0.00 c 17.696,0.00, 32.00,14.304, 32.00,32.00L 480.00,416.00 C 480.00,433.696, 465.696,448.00, 448.00,448.00z M 224.00,416.00l 64.00,0.00 l0.00-32.00 L 224.00,384.00 L 224.00,416.00 z M 416.00,32.00L 96.00,32.00 L 96.00,384.00 l 64.00,0.00 l0.00-32.00 
		c0.00-17.696, 14.304-32.00, 32.00-32.00l 128.00,0.00 c 17.696,0.00, 32.00,14.304, 32.00,32.00L 352.00,384.00 l 64.00,0.00 L 416.00,32.00 zM 336.00,224.00l-160.00,0.00 C 167.168,224.00, 160.00,216.832, 160.00,208.00l0.00-32.00 C 160.00,167.168, 167.168,160.00, 176.00,160.00l 160.00,0.00 
		c 8.832,0.00, 16.00,7.168, 16.00,16.00l0.00,32.00 C 352.00,216.832, 344.832,224.00, 336.00,224.00z"  />
<glyph unicode="&#xe415;" d="M 448.00,448.00l-96.00,0.00 c0.00,8.832-14.304,32.00-32.00,32.00L 192.00,480.00 C 174.304,480.00, 160.00,456.832, 160.00,448.00L 64.00,448.00 
		C 46.304,448.00, 32.00,433.696, 32.00,416.00l0.00-416.00 c0.00-17.696, 14.304-32.00, 32.00-32.00l 384.00,0.00 c 17.696,0.00, 32.00,14.304, 32.00,32.00L 480.00,416.00 C 480.00,433.696, 465.696,448.00, 448.00,448.00z M 224.00,416.00l 64.00,0.00 l0.00-32.00 L 224.00,384.00 L 224.00,416.00 z M 416.00,32.00L 96.00,32.00 L 96.00,384.00 l 64.00,0.00 l0.00-32.00 
		c0.00-17.696, 14.304-32.00, 32.00-32.00l 128.00,0.00 c 17.696,0.00, 32.00,14.304, 32.00,32.00L 352.00,384.00 l 64.00,0.00 L 416.00,32.00 zM 272.00,288.00l-32.00,0.00 C 231.168,288.00, 224.00,280.832, 224.00,272.00L 224.00,224.00 L 176.00,224.00 C 167.168,224.00, 160.00,216.832, 160.00,208.00
		l0.00-32.00 C 160.00,167.168, 167.168,160.00, 176.00,160.00L 224.00,160.00 l0.00-48.00 C 224.00,103.168, 231.168,96.00, 240.00,96.00l 32.00,0.00 C 280.832,96.00, 288.00,103.168, 288.00,112.00L 288.00,160.00 l 48.00,0.00 c 8.832,0.00, 16.00,7.168, 16.00,16.00l0.00,32.00 
		C 352.00,216.832, 344.832,224.00, 336.00,224.00L 288.00,224.00 L 288.00,272.00 C 288.00,280.832, 280.832,288.00, 272.00,288.00z"  />
<glyph unicode="&#xe416;" d="M 448.00,448.00l-96.00,0.00 c0.00,8.832-14.304,32.00-32.00,32.00L 192.00,480.00 C 174.304,480.00, 160.00,456.832, 160.00,448.00L 64.00,448.00 
		C 46.304,448.00, 32.00,433.696, 32.00,416.00l0.00-416.00 c0.00-17.696, 14.304-32.00, 32.00-32.00l 384.00,0.00 c 17.696,0.00, 32.00,14.304, 32.00,32.00L 480.00,416.00 C 480.00,433.696, 465.696,448.00, 448.00,448.00z M 224.00,416.00l 64.00,0.00 l0.00-32.00 L 224.00,384.00 L 224.00,416.00 z M 416.00,32.00L 96.00,32.00 L 96.00,384.00 l 64.00,0.00 l0.00-32.00 
		c0.00-17.696, 14.304-32.00, 32.00-32.00l 128.00,0.00 c 17.696,0.00, 32.00,14.304, 32.00,32.00L 352.00,384.00 l 64.00,0.00 L 416.00,32.00 zM 245.696,69.696c 5.728-7.52, 14.976-7.616, 20.672-0.128L 349.152,176.00
		C 354.88,183.552, 351.776,192.00, 342.272,192.00L 288.00,192.00 L 288.00,271.968 C 288.00,280.80, 280.864,288.00, 272.032,288.00l-32.00,0.00 C 231.20,288.00, 224.00,280.80, 224.00,271.968L 224.00,192.00 L 169.792,192.00 
		C 160.288,192.00, 157.184,183.52, 162.912,176.00L 245.696,69.696z"  />
<glyph unicode="&#xe417;" d="M 128.00,272.00C 128.00,263.168, 135.168,256.00, 144.00,256.00l 224.00,0.00 C 376.832,256.00, 384.00,263.168, 384.00,272.00
		S 376.832,288.00, 368.00,288.00l-224.00,0.00 C 135.168,288.00, 128.00,280.832, 128.00,272.00zM 144.00,192.00l 160.00,0.00 C 312.832,192.00, 320.00,199.168, 320.00,208.00S 312.832,224.00, 304.00,224.00l-160.00,0.00 
		C 135.168,224.00, 128.00,216.832, 128.00,208.00S 135.168,192.00, 144.00,192.00zM 368.00,160.00l-224.00,0.00 C 135.168,160.00, 128.00,152.832, 128.00,144.00S 135.168,128.00, 144.00,128.00l 224.00,0.00 
		c 8.832,0.00, 16.00,7.168, 16.00,16.00S 376.832,160.00, 368.00,160.00zM 304.00,96.00l-160.00,0.00 C 135.168,96.00, 128.00,88.832, 128.00,80.00S 135.168,64.00, 144.00,64.00l 160.00,0.00 
		c 8.832,0.00, 16.00,7.168, 16.00,16.00S 312.832,96.00, 304.00,96.00zM 448.00,448.00l-96.00,0.00 c0.00,8.832-14.304,32.00-32.00,32.00L 192.00,480.00 C 174.304,480.00, 160.00,456.832, 160.00,448.00L 64.00,448.00 
		C 46.304,448.00, 32.00,433.696, 32.00,416.00l0.00-416.00 c0.00-17.696, 14.304-32.00, 32.00-32.00l 384.00,0.00 c 17.696,0.00, 32.00,14.304, 32.00,32.00L 480.00,416.00 C 480.00,433.696, 465.696,448.00, 448.00,448.00z M 224.00,416.00l 64.00,0.00 l0.00-32.00 L 224.00,384.00 L 224.00,416.00 z M 416.00,32.00L 96.00,32.00 L 96.00,384.00 l 64.00,0.00 l0.00-32.00 
		c0.00-17.696, 14.304-32.00, 32.00-32.00l 128.00,0.00 c 17.696,0.00, 32.00,14.304, 32.00,32.00L 352.00,384.00 l 64.00,0.00 L 416.00,32.00 z"  />
<glyph unicode="&#xe418;" d="M 448.00,448.00l-96.00,0.00 c0.00,8.832-14.304,32.00-32.00,32.00L 192.00,480.00 C 174.304,480.00, 160.00,456.832, 160.00,448.00L 64.00,448.00 C 46.304,448.00, 32.00,433.696, 32.00,416.00l0.00-416.00 c0.00-17.696, 14.304-32.00, 32.00-32.00
		l 384.00,0.00 c 17.696,0.00, 32.00,14.304, 32.00,32.00L 480.00,416.00 C 480.00,433.696, 465.696,448.00, 448.00,448.00z M 224.00,416.00l 64.00,0.00 l0.00-32.00 L 224.00,384.00 L 224.00,416.00 z M 416.00,32.00L 96.00,32.00 L 96.00,384.00 l 64.00,0.00 l0.00-32.00 c0.00-17.696, 14.304-32.00, 32.00-32.00l 128.00,0.00 c 17.696,0.00, 32.00,14.304, 32.00,32.00L 352.00,384.00 l 64.00,0.00 
		L 416.00,32.00 zM 336.00,256.00l-160.00,0.00 C 167.168,256.00, 160.00,248.832, 160.00,240.00l0.00-32.00 C 160.00,199.168, 167.168,192.00, 176.00,192.00l 160.00,0.00 C 344.832,192.00, 352.00,199.168, 352.00,208.00l0.00,32.00 
		C 352.00,248.832, 344.832,256.00, 336.00,256.00zM 336.00,160.00l-160.00,0.00 C 167.168,160.00, 160.00,152.832, 160.00,144.00l0.00-32.00 C 160.00,103.168, 167.168,96.00, 176.00,96.00l 160.00,0.00 c 8.832,0.00, 16.00,7.168, 16.00,16.00l0.00,32.00 
		C 352.00,152.832, 344.832,160.00, 336.00,160.00z"  />
<glyph unicode="&#xe419;" d="M 256.00-32.00c-8.192,0.00-16.384,3.136-22.624,9.376L 146.752,64.00L 32.00,64.00 c-17.696,0.00-32.00,14.304-32.00,32.00L0.00,448.00 c0.00,17.696, 14.304,32.00, 32.00,32.00l 448.00,0.00 
		c 17.696,0.00, 32.00-14.304, 32.00-32.00l0.00-352.00 c0.00-17.696-14.304-32.00-32.00-32.00l-114.752,0.00 l-86.624-86.624C 272.384-28.864, 264.192-32.00, 256.00-32.00z M 64.00,128.00l 96.00,0.00 
		c 8.512,0.00, 16.64-3.36, 22.624-9.376L 256.00,45.248l 73.376,73.376C 335.36,124.64, 343.488,128.00, 352.00,128.00l 96.00,0.00 L 448.00,416.00 L 64.00,416.00 L 64.00,128.00 z"  />
<glyph unicode="&#xe41a;" d="M 336.00,256.00l 32.00,0.00 C 376.832,256.00, 384.00,263.168, 384.00,272.00l0.00,32.00 C 384.00,312.832, 376.832,320.00, 368.00,320.00l-32.00,0.00 C 327.168,320.00, 320.00,312.832, 320.00,304.00l0.00-32.00 
		C 320.00,263.168, 327.168,256.00, 336.00,256.00zM 240.00,256.00l 32.00,0.00 C 280.832,256.00, 288.00,263.168, 288.00,272.00l0.00,32.00 C 288.00,312.832, 280.832,320.00, 272.00,320.00l-32.00,0.00 C 231.168,320.00, 224.00,312.832, 224.00,304.00l0.00-32.00 
		C 224.00,263.168, 231.168,256.00, 240.00,256.00zM 144.00,256.00l 32.00,0.00 C 184.832,256.00, 192.00,263.168, 192.00,272.00l0.00,32.00 C 192.00,312.832, 184.832,320.00, 176.00,320.00l-32.00,0.00 C 135.168,320.00, 128.00,312.832, 128.00,304.00l0.00-32.00 
		C 128.00,263.168, 135.168,256.00, 144.00,256.00zM 480.00,480.00L 32.00,480.00 C 14.304,480.00,0.00,465.696,0.00,448.00l0.00-352.00 c0.00-17.696, 14.304-32.00, 32.00-32.00l 114.752,0.00 l 86.624-86.624C 239.616-28.864, 247.808-32.00, 256.00-32.00
		s 16.384,3.136, 22.624,9.376L 365.248,64.00L 480.00,64.00 c 17.696,0.00, 32.00,14.304, 32.00,32.00L 512.00,448.00 C 512.00,465.696, 497.696,480.00, 480.00,480.00z M 448.00,128.00l-96.00,0.00 c-8.512,0.00-16.64-3.36-22.624-9.376
		L 256.00,45.248l-73.376,73.376C 176.64,124.64, 168.512,128.00, 160.00,128.00L 64.00,128.00 L 64.00,416.00 l 384.00,0.00 L 448.00,128.00 z"  />
<glyph unicode="&#xe41b;" d="M 336.00,352.00l-224.00,0.00 C 103.168,352.00, 96.00,344.832, 96.00,336.00l0.00-32.00 C 96.00,295.168, 103.168,288.00, 112.00,288.00l 224.00,0.00 C 344.832,288.00, 352.00,295.168, 352.00,304.00l0.00,32.00 
		C 352.00,344.832, 344.832,352.00, 336.00,352.00zM 240.00,256.00l-128.00,0.00 C 103.168,256.00, 96.00,248.832, 96.00,240.00l0.00-32.00 C 96.00,199.168, 103.168,192.00, 112.00,192.00l 128.00,0.00 C 248.832,192.00, 256.00,199.168, 256.00,208.00l0.00,32.00 
		C 256.00,248.832, 248.832,256.00, 240.00,256.00zM 480.00,480.00L 32.00,480.00 C 14.304,480.00,0.00,465.696,0.00,448.00l0.00-352.00 c0.00-17.696, 14.304-32.00, 32.00-32.00l 114.752,0.00 l 86.624-86.624C 239.616-28.864, 247.808-32.00, 256.00-32.00
		s 16.384,3.136, 22.624,9.376L 365.248,64.00L 480.00,64.00 c 17.696,0.00, 32.00,14.304, 32.00,32.00L 512.00,448.00 C 512.00,465.696, 497.696,480.00, 480.00,480.00z M 448.00,128.00l-96.00,0.00 c-8.512,0.00-16.64-3.36-22.624-9.376
		L 256.00,45.248l-73.376,73.376C 176.64,124.64, 168.512,128.00, 160.00,128.00L 64.00,128.00 L 64.00,416.00 l 384.00,0.00 L 448.00,128.00 z"  />
<glyph unicode="&#xe41c;" d="M 368.00,352.00l-224.00,0.00 C 135.168,352.00, 128.00,344.832, 128.00,336.00l0.00-32.00 C 128.00,295.168, 135.168,288.00, 144.00,288.00l 224.00,0.00 C 376.832,288.00, 384.00,295.168, 384.00,304.00l0.00,32.00 
		C 384.00,344.832, 376.832,352.00, 368.00,352.00zM 368.00,256.00l-224.00,0.00 C 135.168,256.00, 128.00,248.832, 128.00,240.00l0.00-32.00 C 128.00,199.168, 135.168,192.00, 144.00,192.00l 224.00,0.00 C 376.832,192.00, 384.00,199.168, 384.00,208.00l0.00,32.00 
		C 384.00,248.832, 376.832,256.00, 368.00,256.00zM 480.00,480.00L 32.00,480.00 C 14.304,480.00,0.00,465.696,0.00,448.00l0.00-352.00 c0.00-17.696, 14.304-32.00, 32.00-32.00l 114.752,0.00 l 86.624-86.624C 239.616-28.864, 247.808-32.00, 256.00-32.00
		s 16.384,3.136, 22.624,9.376L 365.248,64.00L 480.00,64.00 c 17.696,0.00, 32.00,14.304, 32.00,32.00L 512.00,448.00 C 512.00,465.696, 497.696,480.00, 480.00,480.00z M 448.00,128.00l-96.00,0.00 c-8.512,0.00-16.64-3.36-22.624-9.376
		L 256.00,45.248l-73.376,73.376C 176.64,124.64, 168.512,128.00, 160.00,128.00L 64.00,128.00 L 64.00,416.00 l 384.00,0.00 L 448.00,128.00 z"  />
<glyph unicode="&#xe41d;" d="M 128.00-32.00L 96.00-32.00 c-17.696,0.00-32.00,14.304-32.00,32.00l0.00,64.00 L 32.00,64.00 c-17.696,0.00-32.00,14.304-32.00,32.00L0.00,448.00 c0.00,17.696, 14.304,32.00, 32.00,32.00l 448.00,0.00 
		c 17.696,0.00, 32.00-14.304, 32.00-32.00l0.00-352.00 c0.00-17.696-14.304-32.00-32.00-32.00L 296.864,64.00 l-152.416-91.424C 139.488-30.432, 133.824-32.00, 128.00-32.00z M 64.00,128.00l 32.00,0.00 c 17.696,0.00, 32.00-14.304, 32.00-32.00l0.00-58.688 
		l 143.52,86.112C 276.512,126.432, 282.176,128.00, 288.00,128.00l 160.00,0.00 L 448.00,416.00 L 64.00,416.00 L 64.00,128.00 z"  />
<glyph unicode="&#xe41e;" d="M 336.00,256.00l 32.00,0.00 C 376.832,256.00, 384.00,263.168, 384.00,272.00l0.00,32.00 C 384.00,312.832, 376.832,320.00, 368.00,320.00l-32.00,0.00 C 327.168,320.00, 320.00,312.832, 320.00,304.00l0.00-32.00 
		C 320.00,263.168, 327.168,256.00, 336.00,256.00zM 240.00,256.00l 32.00,0.00 C 280.832,256.00, 288.00,263.168, 288.00,272.00l0.00,32.00 C 288.00,312.832, 280.832,320.00, 272.00,320.00l-32.00,0.00 C 231.168,320.00, 224.00,312.832, 224.00,304.00l0.00-32.00 
		C 224.00,263.168, 231.168,256.00, 240.00,256.00zM 144.00,256.00l 32.00,0.00 C 184.832,256.00, 192.00,263.168, 192.00,272.00l0.00,32.00 C 192.00,312.832, 184.832,320.00, 176.00,320.00l-32.00,0.00 C 135.168,320.00, 128.00,312.832, 128.00,304.00l0.00-32.00 
		C 128.00,263.168, 135.168,256.00, 144.00,256.00zM 480.00,480.00L 32.00,480.00 C 14.304,480.00,0.00,465.696,0.00,448.00l0.00-352.00 c0.00-17.696, 14.304-32.00, 32.00-32.00l 32.00,0.00 l0.00-64.00 c0.00-17.696, 14.304-32.00, 32.00-32.00l 32.00,0.00 
		c 5.824,0.00, 11.488,1.568, 16.48,4.576L 296.864,64.00L 480.00,64.00 c 17.696,0.00, 32.00,14.304, 32.00,32.00L 512.00,448.00 C 512.00,465.696, 497.696,480.00, 480.00,480.00z M 448.00,128.00L 288.00,128.00 
		c-5.824,0.00-11.488-1.568-16.48-4.576L 128.00,37.312L 128.00,96.00 c0.00,17.696-14.304,32.00-32.00,32.00L 64.00,128.00 L 64.00,416.00 l 384.00,0.00 L 448.00,128.00 z"  />
<glyph unicode="&#xe41f;" d="M 144.00,288.00l 224.00,0.00 C 376.832,288.00, 384.00,295.168, 384.00,304.00l0.00,32.00 C 384.00,344.832, 376.832,352.00, 368.00,352.00l-224.00,0.00 C 135.168,352.00, 128.00,344.832, 128.00,336.00l0.00-32.00 
		C 128.00,295.168, 135.168,288.00, 144.00,288.00zM 144.00,192.00l 128.00,0.00 C 280.832,192.00, 288.00,199.168, 288.00,208.00l0.00,32.00 C 288.00,248.832, 280.832,256.00, 272.00,256.00l-128.00,0.00 C 135.168,256.00, 128.00,248.832, 128.00,240.00l0.00-32.00 
		C 128.00,199.168, 135.168,192.00, 144.00,192.00zM 480.00,480.00L 32.00,480.00 C 14.304,480.00,0.00,465.696,0.00,448.00l0.00-352.00 c0.00-17.696, 14.304-32.00, 32.00-32.00l 32.00,0.00 l0.00-64.00 c0.00-17.696, 14.304-32.00, 32.00-32.00l 32.00,0.00 
		c 5.824,0.00, 11.488,1.568, 16.48,4.576L 296.864,64.00L 480.00,64.00 c 17.696,0.00, 32.00,14.304, 32.00,32.00L 512.00,448.00 C 512.00,465.696, 497.696,480.00, 480.00,480.00z M 448.00,128.00L 288.00,128.00 
		c-5.824,0.00-11.488-1.568-16.48-4.576L 128.00,37.312L 128.00,96.00 c0.00,17.696-14.304,32.00-32.00,32.00L 64.00,128.00 L 64.00,416.00 l 384.00,0.00 L 448.00,128.00 z"  />
<glyph unicode="&#xe420;" d="M 144.00,288.00l 224.00,0.00 C 376.832,288.00, 384.00,295.168, 384.00,304.00l0.00,32.00 C 384.00,344.832, 376.832,352.00, 368.00,352.00l-224.00,0.00 C 135.168,352.00, 128.00,344.832, 128.00,336.00l0.00-32.00 
		C 128.00,295.168, 135.168,288.00, 144.00,288.00zM 144.00,192.00l 224.00,0.00 C 376.832,192.00, 384.00,199.168, 384.00,208.00l0.00,32.00 C 384.00,248.832, 376.832,256.00, 368.00,256.00l-224.00,0.00 C 135.168,256.00, 128.00,248.832, 128.00,240.00l0.00-32.00 
		C 128.00,199.168, 135.168,192.00, 144.00,192.00zM 480.00,480.00L 32.00,480.00 C 14.304,480.00,0.00,465.696,0.00,448.00l0.00-352.00 c0.00-17.696, 14.304-32.00, 32.00-32.00l 32.00,0.00 l0.00-64.00 c0.00-17.696, 14.304-32.00, 32.00-32.00l 32.00,0.00 
		c 5.824,0.00, 11.488,1.568, 16.48,4.576L 296.864,64.00L 480.00,64.00 c 17.696,0.00, 32.00,14.304, 32.00,32.00L 512.00,448.00 C 512.00,465.696, 497.696,480.00, 480.00,480.00z M 448.00,128.00L 288.00,128.00 
		c-5.824,0.00-11.488-1.568-16.48-4.576L 128.00,37.312L 128.00,96.00 c0.00,17.696-14.304,32.00-32.00,32.00L 64.00,128.00 L 64.00,416.00 l 384.00,0.00 L 448.00,128.00 z"  />
<glyph unicode="&#xe421;" d="M 32.00,384.00C 14.304,384.00,0.00,369.696,0.00,352.00l0.00-288.00 c0.00-17.696, 14.304-32.00, 32.00-32.00l 128.00,0.00 l 83.936-55.20C 251.328-28.064, 264.48-32.00, 273.312-32.00L 336.00-32.00 
		c 8.832,0.00, 16.00,7.168, 16.00,16.00L 352.00,32.00 l 32.00,0.00 c 17.696,0.00, 32.00,14.304, 32.00,32.00L 416.00,352.00 c0.00,17.696-14.304,32.00-32.00,32.00L 32.00,384.00 z M 352.00,96.00L 288.00,96.00 l0.00-64.00 l-96.00,64.00L 64.00,96.00 L 64.00,320.00 l 288.00,0.00 L 352.00,96.00 zM 128.00,480.00C 110.304,480.00, 96.00,465.696, 96.00,448.00l0.00-32.00 l 64.00,0.00 l 272.00,0.00 C 440.832,416.00, 448.00,408.832, 448.00,400.00L 448.00,192.00 l0.00-64.00 l 32.00,0.00 c 17.696,0.00, 32.00,14.304, 32.00,32.00L 512.00,448.00 
		c0.00,17.696-14.304,32.00-32.00,32.00L 128.00,480.00 z"  />
<glyph unicode="&#xe422;" d="M 384.00,384.00L 32.00,384.00 C 14.304,384.00,0.00,369.696,0.00,352.00l0.00-288.00 c0.00-17.696, 14.304-32.00, 32.00-32.00l 128.00,0.00 
		l 83.936-55.20C 251.328-28.064, 264.48-32.00, 273.312-32.00L 336.00-32.00 c 8.832,0.00, 16.00,7.168, 16.00,16.00L 352.00,32.00 l 32.00,0.00 c 17.696,0.00, 32.00,14.304, 32.00,32.00L 416.00,352.00 C 416.00,369.696, 401.696,384.00, 384.00,384.00z
		 M 352.00,96.00L 288.00,96.00 l0.00-64.00 l-96.00,64.00L 64.00,96.00 L 64.00,320.00 l 288.00,0.00 L 352.00,96.00 zM 480.00,480.00L 128.00,480.00 C 110.304,480.00, 96.00,465.696, 96.00,448.00l0.00-32.00 l 64.00,0.00 l 272.00,0.00 C 440.832,416.00, 448.00,408.832, 448.00,400.00
		L 448.00,192.00 l0.00-64.00 l 32.00,0.00 c 17.696,0.00, 32.00,14.304, 32.00,32.00L 512.00,448.00 C 512.00,465.696, 497.696,480.00, 480.00,480.00zM 112.00,224.00l 192.00,0.00 C 312.832,224.00, 320.00,231.168, 320.00,240.00l0.00,32.00 C 320.00,280.832, 312.832,288.00, 304.00,288.00
		l-192.00,0.00 C 103.168,288.00, 96.00,280.832, 96.00,272.00l0.00-32.00 C 96.00,231.168, 103.168,224.00, 112.00,224.00zM 112.00,128.00l 192.00,0.00 c 8.832,0.00, 16.00,7.168, 16.00,16.00l0.00,32.00 
		C 320.00,184.832, 312.832,192.00, 304.00,192.00l-192.00,0.00 C 103.168,192.00, 96.00,184.832, 96.00,176.00l0.00-32.00 C 96.00,135.168, 103.168,128.00, 112.00,128.00z"  />
<glyph unicode="&#xe423;" d="M 32.00,352.00C 14.304,352.00,0.00,337.696,0.00,320.00l0.00-256.00 c0.00-17.696, 14.304-32.00, 32.00-32.00l 96.00,0.00 l 83.936-55.20C 219.328-28.064, 232.48-32.00, 241.312-32.00L 304.00-32.00 
		c 8.832,0.00, 16.00,7.168, 16.00,16.00L 320.00,32.00 l 32.00,0.00 c 17.696,0.00, 32.00,14.304, 32.00,32.00L 384.00,320.00 c0.00,17.696-14.304,32.00-32.00,32.00L 32.00,352.00 z M 320.00,96.00L 256.00,96.00 l0.00-64.00 l-96.00,64.00L 64.00,96.00 L 64.00,288.00 l 256.00,0.00 L 320.00,96.00 zM 160.00,480.00C 142.304,480.00, 128.00,465.696, 128.00,448.00l0.00-64.00 l 64.00,0.00 L 192.00,416.00 l 240.00,0.00 C 440.832,416.00, 448.00,408.832, 448.00,400.00L 448.00,224.00 l-32.00,0.00 l0.00-64.00 l 32.00,0.00 l 32.00,0.00 c 17.696,0.00, 32.00,14.304, 32.00,32.00L 512.00,448.00 
		c0.00,17.696-14.304,32.00-32.00,32.00L 160.00,480.00 z"  />
<glyph unicode="&#xe424;" d="M 416.00,288.00L 416.00,288.00L 416.00,320.00 c0.00,88.384-71.616,160.00-160.00,160.00S 96.00,408.384, 96.00,320.00l0.00-32.00 l0.00,0.00C 78.304,288.00, 64.00,273.696, 64.00,256.00l0.00-256.00 
	c0.00-17.696, 14.304-32.00, 32.00-32.00l 320.00,0.00 c 17.696,0.00, 32.00,14.304, 32.00,32.00L 448.00,256.00 C 448.00,273.696, 433.696,288.00, 416.00,288.00z M 256.00,416.00c 52.928,0.00, 96.00-43.072, 96.00-96.00l0.00-32.00 L 160.00,288.00 L 160.00,320.00 C 160.00,372.928, 203.072,416.00, 256.00,416.00z
	 M 384.00,32.00L 128.00,32.00 L 128.00,224.00 l 256.00,0.00 L 384.00,32.00 z"  />
<glyph unicode="&#xe425;" d="M 320.00,288.00L 160.00,288.00 L 160.00,320.00 c0.00,52.928, 43.072,96.00, 96.00,96.00c 41.952,0.00, 77.696-27.072, 90.72-64.64
	C 352.544,334.688, 366.304,320.00, 384.00,320.00l0.00,0.00c 17.696,0.00, 32.352,14.432, 28.832,31.744C 398.112,424.928, 333.504,480.00, 256.00,480.00C 167.616,480.00, 96.00,408.384, 96.00,320.00l0.00-32.00 
	C 78.304,288.00, 64.00,273.696, 64.00,256.00l0.00-256.00 c0.00-17.696, 14.304-32.00, 32.00-32.00l 320.00,0.00 c 17.696,0.00, 32.00,14.304, 32.00,32.00L 448.00,256.00 c0.00,17.696-14.304,32.00-32.00,32.00L 320.00,288.00 z M 384.00,32.00L 128.00,32.00 L 128.00,224.00 l 256.00,0.00 L 384.00,32.00 z"  />
<glyph unicode="&#xe426;" d="M 416.00,288.00L 416.00,320.00 c0.00,88.384-71.616,160.00-160.00,160.00S 96.00,408.384, 96.00,320.00l0.00-32.00 C 78.304,288.00, 64.00,273.696, 64.00,256.00l0.00-256.00 c0.00-17.696, 14.304-32.00, 32.00-32.00l 320.00,0.00 
		c 17.696,0.00, 32.00,14.304, 32.00,32.00L 448.00,256.00 C 448.00,273.696, 433.696,288.00, 416.00,288.00z M 160.00,320.00c0.00,52.928, 43.072,96.00, 96.00,96.00s 96.00-43.072, 96.00-96.00l0.00-32.00 l-32.00,0.00 L 192.00,288.00 L 160.00,288.00 L 160.00,320.00 z M 384.00,32.00L 128.00,32.00 L 128.00,224.00 l 256.00,0.00 L 384.00,32.00 zM 240.00,64.00l 32.00,0.00 C 280.832,64.00, 288.00,71.168, 288.00,80.00L 288.00,160.00 c0.00,17.696-14.304,32.00-32.00,32.00s-32.00-14.304-32.00-32.00l0.00-80.00 
		C 224.00,71.168, 231.168,64.00, 240.00,64.00z"  />
<glyph unicode="&#xe427;" d="M 448.00,288.00l-32.00,0.00 L 416.00,320.00 c0.00,88.384-71.616,160.00-160.00,160.00S 96.00,408.384, 96.00,320.00l0.00-32.00 L 64.00,288.00 C 46.304,288.00, 32.00,270.496, 32.00,252.80L 32.00,0.00 c0.00-17.696, 14.304-32.00, 32.00-32.00l 384.00,0.00 
		c 17.696,0.00, 32.00,14.304, 32.00,32.00L 480.00,252.80 C 480.00,270.496, 465.696,288.00, 448.00,288.00z M 256.00,416.00c 52.928,0.00, 96.00-43.072, 96.00-96.00l0.00-32.00 l-32.00,0.00 L 192.00,288.00 L 160.00,288.00 L 160.00,320.00 C 160.00,372.928, 203.072,416.00, 256.00,416.00z M 416.00,32.00L 96.00,32.00 L 96.00,224.00 l 320.00,0.00 L 416.00,32.00 z"  />
<glyph unicode="&#xe428;" d="M 160.00,288.00L 160.00,320.00 c0.00,52.928, 43.072,96.00, 96.00,96.00c 41.952,0.00, 77.696-27.072, 90.72-64.64
	C 352.544,334.688, 366.304,320.00, 384.00,320.00l0.00,0.00c 17.696,0.00, 32.352,14.432, 28.832,31.744C 398.112,424.928, 333.504,480.00, 256.00,480.00C 167.616,480.00, 96.00,408.384, 96.00,320.00l0.00-32.00 L 64.00,288.00 
	C 46.304,288.00, 32.00,270.496, 32.00,252.80L 32.00,0.00 c0.00-17.696, 14.304-32.00, 32.00-32.00l 384.00,0.00 c 17.696,0.00, 32.00,14.304, 32.00,32.00L 480.00,252.80 C 480.00,270.496, 465.696,288.00, 448.00,288.00L 160.00,288.00 z M 416.00,32.00L 96.00,32.00 L 96.00,224.00 l 320.00,0.00 L 416.00,32.00 z"  />
<glyph unicode="&#xe429;" d="M0.00,320.00c0.00-88.224, 71.776-160.00, 160.00-160.00c 5.792,0.00, 11.648,0.352, 17.728,1.024L 192.00,146.752L 192.00,80.00 C 192.00,71.168, 199.168,64.00, 208.00,64.00
		L 256.00,64.00 l0.00-48.00 C 256.00,7.168, 263.168,0.00, 272.00,0.00L 320.00,0.00 l0.00-16.00 c0.00-8.832, 7.168-16.00, 16.00-16.00l 160.00,0.00 c 8.832,0.00, 16.00,7.168, 16.00,16.00l0.00,109.44 
		c0.00,8.832-5.12,20.992-11.424,27.232L 318.656,299.328C 319.552,305.984, 320.00,312.864, 320.00,320.00c0.00,88.224-71.776,160.00-160.00,160.00S0.00,408.224,0.00,320.00z M 448.00,32.00l-64.00,0.00 l0.00,32.00 l-64.00,0.00 l0.00,64.00 L 256.00,128.00 
		L 256.00,173.248 L 199.264,230.048l-16.928-3.52C 174.048,224.80, 166.784,224.00, 160.00,224.00C 107.072,224.00, 64.00,267.072, 64.00,320.00s 43.072,96.00, 96.00,96.00s 96.00-43.072, 96.00-96.00
		c0.00-8.288-0.96-15.808-2.912-22.432L 247.776,279.20L 448.00,82.56L 448.00,32.00 zM 96.00,336.00A48.00,48.00 180.00 1 1 192.00,336A48.00,48.00 180.00 1 1 96.00,336z"  />
<glyph unicode="&#xe42a;" d="M 513.952,235.328l-73.376,73.376C 434.304,314.944, 422.08,320.00, 413.248,320.00L 224.00,320.00 L 224.00,352.00 c0.00,17.696-14.304,32.00-32.00,32.00L0.00,384.00 
		c-17.696,0.00-32.00-14.304-32.00-32.00l0.00-260.00 C-32.00,74.304-17.696,64.00,0.00,64.00l 192.00,0.00 c 17.696,0.00, 32.00,14.304, 32.00,32.00l0.00,32.00 l 18.752,0.00 l 33.952-33.952c 6.24-6.24, 16.384-6.24, 22.624,0.00
		L 333.248,128.00l 5.504,0.00 l 33.952-33.952c 6.24-6.24, 16.384-6.24, 22.624,0.00l 118.624,118.624C 520.192,218.944, 520.192,229.056, 513.952,235.328z M 384.00,173.248
		L 365.248,192.00L 306.752,192.00 L 288.00,173.248L 269.248,192.00L 160.00,192.00 l0.00-64.00 L 32.00,128.00 L 32.00,320.00 l 128.00,0.00 l0.00-64.00 l 242.752,0.00 l 32.00-32.00L 384.00,173.248zM 112.00,288.00l-32.00,0.00 C 71.168,288.00, 64.00,280.832, 64.00,272.00l0.00-96.00 C 64.00,167.168, 71.168,160.00, 80.00,160.00l 32.00,0.00 C 120.832,160.00, 128.00,167.168, 128.00,176.00l0.00,96.00 
		C 128.00,280.832, 120.832,288.00, 112.00,288.00z"  />
<glyph unicode="&#xe42b;" d="M 480.00,182.24
	c0.00,106.304-68.00,195.776-160.96,224.192C 319.488,409.60, 320.00,412.736, 320.00,416.00c0.00,35.36-28.672,64.00-64.00,64.00S 192.00,451.36, 192.00,416.00c0.00-3.264, 0.512-6.40, 0.96-9.568
	C 100.00,378.016, 32.00,288.576, 32.00,182.24L 32.00,96.00 L 16.00,96.00 C 7.168,96.00,0.00,88.832,0.00,80.00l0.00-32.00 C0.00,39.168, 7.168,32.00, 16.00,32.00L 192.00,32.00 c0.00-35.36, 28.672-64.00, 64.00-64.00s 64.00,28.64, 64.00,64.00l 176.00,0.00 
	c 8.832,0.00, 16.00,7.168, 16.00,16.00l0.00,32.00 c0.00,8.832-7.168,16.00-16.00,16.00L 480.00,96.00 L 480.00,182.24 z M 96.00,96.00L 96.00,182.24 C 96.00,275.872, 167.776,352.00, 256.00,352.00s 160.00-76.128, 160.00-169.76L 416.00,96.00 L 96.00,96.00 z"  />
<glyph unicode="&#xe42c;" d="M 480.00,182.24
	c0.00,105.952-67.52,195.20-160.00,223.936L 320.00,416.00 c0.00,35.36-28.672,64.00-64.00,64.00S 192.00,451.36, 192.00,416.00l0.00-9.824 C 99.52,377.44, 32.00,288.192, 32.00,182.24L 32.00,128.00 L 16.00,128.00 C 7.168,128.00,0.00,120.832,0.00,112.00l0.00-32.00 
	C0.00,71.168, 7.168,64.00, 16.00,64.00L 160.00,64.00 c0.00-52.992, 42.976-96.00, 96.00-96.00s 96.00,43.008, 96.00,96.00l 144.00,0.00 c 8.832,0.00, 16.00,7.168, 16.00,16.00l0.00,32.00 c0.00,8.832-7.168,16.00-16.00,16.00L 480.00,128.00 L 480.00,182.24 
	z M 272.00,32.00l-32.00,0.00 C 231.168,32.00, 224.00,39.168, 224.00,48.00L 224.00,64.00 l 64.00,0.00 l0.00-16.00 C 288.00,39.168, 280.832,32.00, 272.00,32.00z M 96.00,128.00L 96.00,182.24 C 96.00,275.872, 167.776,352.00, 256.00,352.00s 160.00-76.128, 160.00-169.76L 416.00,128.00 L 96.00,128.00 z"  />
<glyph unicode="&#xe42d;" d="M 288.00,381.792L 288.00,416.00 l 16.00,0.00 
	C 312.832,416.00, 320.00,423.168, 320.00,432.00L 320.00,448.00 c0.00,17.696-14.304,32.00-32.00,32.00L 224.00,480.00 C 206.304,480.00, 192.00,465.696, 192.00,448.00l0.00-16.00 C 192.00,423.168, 199.168,416.00, 208.00,416.00L 224.00,416.00 l0.00-34.208 C 97.76,366.016,0.00,290.528,0.00,160.00
	l0.00-32.00 c0.00-17.696, 14.304-32.00, 32.00-32.00l 192.00,0.00 l0.00-64.00 L 32.00,32.00 c-17.696,0.00-32.00-14.304-32.00-32.00l0.00-16.00 C0.00-24.832, 7.168-32.00, 16.00-32.00l 480.00,0.00 c 8.832,0.00, 16.00,7.168, 16.00,16.00L 512.00,0.00 
	c0.00,17.696-14.304,32.00-32.00,32.00L 288.00,32.00 l0.00,64.00 l 192.00,0.00 c 17.696,0.00, 32.00,14.304, 32.00,32.00l0.00,32.00 C 512.00,290.528, 414.24,366.016, 288.00,381.792z M 256.00,320.00c 105.888,0.00, 192.00-54.112, 192.00-160.00L 64.00,160.00 
	C 64.00,265.888, 150.112,320.00, 256.00,320.00z"  />
<glyph unicode="&#xe42e;" d="M 480.00,352.00l-64.00,0.00 L 416.00,448.00 c0.00,17.696-14.304,32.00-32.00,32.00L 128.00,480.00 C 110.304,480.00, 96.00,465.696, 96.00,448.00l0.00-96.00 L 32.00,352.00 C 14.304,352.00,0.00,337.696,0.00,320.00l0.00-256.00 
		c0.00-17.696, 14.304-32.00, 32.00-32.00l 64.00,0.00 l0.00-32.00 c0.00-17.696, 14.304-32.00, 32.00-32.00l 256.00,0.00 c 17.696,0.00, 32.00,14.304, 32.00,32.00l0.00,32.00 l 64.00,0.00 c 17.696,0.00, 32.00,14.304, 32.00,32.00L 512.00,320.00 C 512.00,337.696, 497.696,352.00, 480.00,352.00z M 160.00,416.00l 192.00,0.00 l0.00-64.00 
		L 160.00,352.00 L 160.00,416.00 z M 352.00,32.00L 160.00,32.00 l0.00,64.00 l 192.00,0.00 L 352.00,32.00 z M 448.00,96.00l-32.00,0.00 l0.00,64.00 L 96.00,160.00 l0.00-64.00 L 64.00,96.00 L 64.00,288.00 l 384.00,0.00 L 448.00,96.00 zM 256.00,256.00L 320.00,256.00L 320.00,192.00L 256.00,192.00zM 352.00,256.00L 416.00,256.00L 416.00,192.00L 352.00,192.00z"  />
<glyph unicode="&#xe42f;" d="M 32.00,448.00l0.00-448.00 c0.00-17.696, 14.304-32.00, 32.00-32.00l 384.00,0.00 c 17.696,0.00, 32.00,14.304, 32.00,32.00L 480.00,448.00 c0.00,17.696-14.304,32.00-32.00,32.00L 64.00,480.00 C 46.304,480.00, 32.00,465.696, 32.00,448.00z
		 M 416.00,32.00L 96.00,32.00 L 96.00,256.00 l 320.00,0.00 L 416.00,32.00 z M 96.00,320.00L 96.00,416.00 l 320.00,0.00 l0.00-96.00 L 96.00,320.00 zM 128.00,224.00L 192.00,224.00L 192.00,160.00L 128.00,160.00zM 224.00,224.00L 288.00,224.00L 288.00,160.00L 224.00,160.00zM 320.00,224.00L 384.00,224.00L 384.00,160.00L 320.00,160.00zM 128.00,128.00L 192.00,128.00L 192.00,64.00L 128.00,64.00zM 224.00,128.00L 288.00,128.00L 288.00,64.00L 224.00,64.00zM 320.00,128.00L 384.00,128.00L 384.00,64.00L 320.00,64.00z"  />
<glyph unicode="&#xe430;" d="M 448.00,288.64C 448.00,384.64, 368.96,448.00, 271.68,448.00C 180.48,448.00, 96.00,384.00, 96.00,288.64l0.00,0.00c-70.40,0.00-128.00-57.92-128.00-128.64
	c0.00-70.40, 57.28-128.00, 128.00-128.00l 320.00,0.00 c 70.72,0.00, 127.36,57.60, 127.36,128.00C 543.36,219.488, 503.04,274.56, 448.00,288.64z M 96.00,96.00c-32.00,0.00-64.00,28.512-64.00,63.68C 32.00,195.20, 60.80,224.00, 96.00,224.00l 48.00,0.00 
	C 152.832,224.00, 160.00,231.168, 160.00,240.00L 160.00,289.248 c0.00,23.68, 8.32,44.192, 24.96,61.12C 206.08,371.488, 238.40,384.00, 271.68,384.00C 325.76,384.00, 384.00,354.208, 384.00,288.64L 384.00,240.00 
	C 384.00,231.168, 391.168,224.00, 400.00,224.00L 416.00,224.00 c 32.00,0.00, 64.00-32.00, 64.00-64.00s-29.12-64.00-64.32-64.00L 96.00,96.00 z"  />
<glyph unicode="&#xe431;" d="M 448.00,256.64C 448.00,352.64, 368.96,416.00, 271.68,416.00C 180.48,416.00, 96.00,352.00, 96.00,256.64
		c-35.20,0.00-67.20-14.40-90.24-37.76C-17.60,195.808-32.00,163.488-32.00,128.00c0.00-70.40, 57.28-128.00, 128.00-128.00l 80.00,0.00 C 184.832,0.00, 192.00,7.776, 192.00,16.64l0.00,32.00 C 192.00,57.472, 184.832,64.00, 176.00,64.00
		L 96.00,64.00 c-32.00,0.00-64.00,28.512-64.00,63.68C 32.00,163.20, 60.80,192.00, 96.00,192.00l 48.00,0.00 C 152.832,192.00, 160.00,199.776, 160.00,208.64l0.00,48.64 c0.00,23.68, 8.32,44.192, 24.96,61.12C 206.08,339.488, 238.40,352.00, 271.68,352.00
		C 325.76,352.00, 384.00,322.208, 384.00,256.64l0.00-48.00 C 384.00,199.776, 391.168,192.00, 400.00,192.00L 416.00,192.00 c 32.00,0.00, 64.00-32.00, 64.00-64.00s-29.12-64.00-64.32-64.00L 336.00,64.00 c-8.832,0.00-16.00-6.528-16.00-15.36l0.00-32.00 
		c0.00-8.832, 7.168-16.64, 16.00-16.64L 416.00,0.00 c 70.72,0.00, 127.36,57.60, 127.36,128.00C 543.36,187.488, 503.04,242.56, 448.00,256.64zM 349.12,144.32L 266.336,250.784C 260.64,258.272, 251.36,258.496, 245.664,250.976
		L 162.88,144.288C 157.152,136.704, 160.256,128.00, 169.76,128.00L 224.00,128.00 l0.00-79.36 C 224.00,39.808, 231.168,32.00, 240.00,32.00l 32.00,0.00 C 280.832,32.00, 288.00,39.808, 288.00,48.64L 288.00,128.00 l 54.24,0.00 
		C 351.744,128.00, 354.848,136.768, 349.12,144.32z"  />
<glyph unicode="&#xe432;" d="M 448.00,256.64C 448.00,352.64, 368.96,416.00, 271.68,416.00C 180.512,416.00, 96.00,352.00, 96.00,256.64
		c-35.20,0.00-67.20-14.40-90.208-37.76C-17.60,195.808-32.00,163.488-32.00,128.00c0.00-70.40, 57.28-128.00, 128.00-128.00l 81.28,0.00 c 8.832,0.00, 11.648,6.016, 6.304,13.056l-29.248,38.336
		C 148.992,58.464, 137.504,64.00, 128.672,64.00L 96.00,64.00 c-32.00,0.00-64.00,28.80-64.00,64.00c0.00,10.56, 2.56,20.672, 7.36,29.60C 49.952,178.08, 71.36,192.00, 96.00,192.00l 47.36,0.00 
		C 152.352,192.00, 160.00,199.68, 160.00,208.64l0.00,48.64 C 160.00,268.48, 161.60,279.04, 165.44,288.64c 4.16,10.88, 10.72,20.80, 19.36,29.76C 205.952,339.488, 238.496,352.00, 271.776,352.00
		C 325.504,352.00, 384.00,322.208, 384.00,256.64l0.00-48.00 C 384.00,199.68, 390.40,192.00, 399.36,192.00L 416.00,192.00 c 21.792,0.00, 43.84-14.752, 55.36-34.24C 476.80,148.48, 480.00,138.40, 480.00,128.16
		c0.00-32.00-29.088-64.16-64.32-64.16l-33.60,0.00 c-8.832,0.00-20.352-5.376-25.696-12.448l-29.248-38.656C 321.824,5.856, 324.64,0.00, 333.472,0.00L 416.00,0.00 
		c 70.752,0.00, 127.36,57.60, 127.36,128.00C 543.36,187.488, 503.072,242.56, 448.00,256.64zM 341.632,160.00L 288.00,160.00 L 288.00,240.64 C 288.00,249.44, 280.224,256.00, 271.36,256.00l-32.00,0.00 
		C 230.528,256.00, 224.00,249.44, 224.00,240.64L 224.00,160.00 L 169.12,160.00 c-9.504,0.00-12.608-8.16-6.88-15.68l 82.784-106.144c 5.728-7.488, 14.976-7.52, 20.672-0.032l 82.784,106.144
		C 354.208,151.84, 351.136,160.00, 341.632,160.00z"  />
<glyph unicode="&#xe433;" d="M 352.00,112.64l0.00,32.00 c0.00,8.832-7.456,15.36-16.32,15.36L 288.00,160.00 L 288.00,208.64 C 288.00,217.472, 280.544,224.00, 271.68,224.00l-32.00,0.00 
		C 230.848,224.00, 224.00,217.472, 224.00,208.64L 224.00,160.00 L 175.68,160.00 C 166.848,160.00, 160.00,153.472, 160.00,144.64l0.00-32.00 C 160.00,103.776, 166.848,96.00, 175.68,96.00L 224.00,96.00 l0.00-47.36 C 224.00,39.776, 230.848,32.00, 239.68,32.00l 32.00,0.00 
		C 280.544,32.00, 288.00,39.776, 288.00,48.64L 288.00,96.00 l 47.68,0.00 C 344.544,96.00, 352.00,103.776, 352.00,112.64zM 271.68,416.00C 180.512,416.00, 96.00,352.00, 96.00,256.64c-35.20,0.00-67.20-14.40-90.208-37.76C-17.60,195.808-32.00,163.488-32.00,128.00c0.00-70.40, 57.28-128.00, 128.00-128.00
		l 79.68,0.00 C 184.544,0.00, 192.00,7.776, 192.00,16.64l0.00,32.00 C 192.00,57.472, 184.544,64.00, 175.68,64.00L 96.00,64.00 c-32.00,0.00-64.00,28.80-64.00,64.00c0.00,10.56, 2.56,20.672, 7.36,29.60
		C 49.952,178.08, 71.36,192.00, 96.00,192.00l 47.68,0.00 C 152.544,192.00, 160.00,199.776, 160.00,208.64l0.00,48.64 C 160.00,268.48, 161.60,279.04, 165.44,288.64c 4.16,10.88, 10.688,20.80, 19.392,29.76
		C 205.952,339.488, 238.464,352.00, 271.744,352.00C 325.504,352.00, 384.00,322.208, 384.00,256.64l0.00-48.00 C 384.00,199.776, 390.848,192.00, 399.68,192.00L 416.00,192.00 c 21.792,0.00, 43.84-14.752, 55.36-34.24
		C 476.80,148.48, 480.00,138.40, 480.00,128.16c0.00-32.00-29.088-64.16-64.32-64.16l-80.00,0.00 C 326.848,64.00, 320.00,57.472, 320.00,48.64l0.00-32.00 c0.00-8.832, 6.848-16.64, 15.68-16.64L 416.00,0.00 
		c 70.752,0.00, 127.36,57.60, 127.36,128.00c0.00,59.488-40.32,114.40-95.36,128.48C 448.00,352.48, 368.96,416.00, 271.68,416.00z"  />
<glyph unicode="&#xe434;" d="M 320.00,32.00L 128.00,32.00 c-70.56,0.00-128.00,57.408-128.00,128.00s 57.44,128.00, 128.00,128.00c 3.648,0.00, 7.296-0.16, 10.88-0.48
		C 165.184,363.648, 236.736,416.00, 320.00,416.00c 105.888,0.00, 192.00-86.112, 192.00-192.00S 425.888,32.00, 320.00,32.00z M 64.00,160.00c0.00-35.296, 28.672-64.00, 64.00-64.00l 192.00,0.00 c 70.56,0.00, 128.00,57.408, 128.00,128.00s-57.44,128.00-128.00,128.00
		C 256.832,352.00, 203.776,306.816, 193.824,244.544L 190.048,220.992C 188.672,212.32, 180.864,207.84, 172.672,211.072L 150.496,219.808C 143.456,222.592, 135.872,224.00, 128.00,224.00
		C 92.672,224.00, 64.00,195.296, 64.00,160.00z"  />
<glyph unicode="&#xe435;" d="M 224.00-16.00C 224.00-24.832, 216.544-32.00, 207.616-32.00L 62.528-32.00 C 44.704-32.00, 32.00-17.696, 32.00,0.00L 32.00,192.00 l-47.328,0.00 
		c-17.824,0.00-22.016,10.112-9.44,22.624l 257.952,256.00c 12.64,12.512, 32.992,12.512, 45.632,0.00l 257.952-256.00C 549.344,202.112, 545.12,192.00, 527.328,192.00L 480.00,192.00 l0.00-192.00 
		c0.00-17.696-12.704-32.00-30.528-32.00L 304.384-32.00 C 295.456-32.00, 288.00-24.832, 288.00-16.00L 288.00,96.00 L 224.00,96.00 L 224.00-16.00 z M 416.00,32.00L 416.00,242.752 l-160.00,160.00l-160.00-160.00L 96.00,32.00 l 64.00,0.00 l0.00,96.00 c0.00,17.696, 13.696,32.00, 31.488,32.00
		l 128.992,0.00 C 338.304,160.00, 352.00,145.696, 352.00,128.00l0.00-96.00 L 416.00,32.00 z"  />
<glyph unicode="&#xe436;" d="M 267.616,475.264c-6.432,6.336-16.80,6.336-23.264,0.00l-272.672-270.304
	C-34.72,198.592-32.576,192.00-23.488,192.00L 32.00,192.00 l0.00-201.376 C 32.00-18.208, 39.168-32.00, 48.00-32.00l 416.00,0.00 c 8.832,0.00, 16.00,13.792, 16.00,22.624L 480.00,192.00 l 55.488,0.00 
	c 9.056,0.00, 11.232,6.592, 4.80,12.928L 267.616,475.264z M 320.00,150.624C 320.00,159.456, 312.832,160.00, 304.00,160.00l-96.00,0.00 C 199.168,160.00, 192.00,159.456, 192.00,150.624L 192.00,32.00 L 96.00,32.00 L 96.00,232.928 
	l 160.00,162.08l 160.00-162.08L 416.00,32.00 l-96.00,0.00 L 320.00,150.624 z"  />
<glyph unicode="&#xe437;" d="M 416.00,326.624l0.00,112.00 
	C 416.00,447.456, 409.376,448.00, 400.544,448.00l-32.064,0.00 C 359.616,448.00, 352.00,447.456, 352.00,438.624l0.00-48.00 L 267.424,475.328c-6.24,6.24-16.256,6.24-22.528,0.00l-273.344-268.672
	C-34.688,200.384-32.576,192.00-23.712,192.00L 32.00,192.00 l0.00-89.376 l0.00-112.00 C 32.00-18.208, 39.232-32.00, 48.096-32.00l 416.512,0.00 C 473.472-32.00, 480.00-18.208, 480.00-9.376L 480.00,192.00 l 55.68,0.00 
	c 8.832,0.00, 10.688,8.384, 4.448,14.624L 416.00,326.624z M 320.00,32.00l0.00,118.624 C 320.00,159.456, 313.248,160.00, 304.416,160.00L 208.288,160.00 C 199.424,160.00, 192.00,159.456, 192.00,150.624L 192.00,32.00 L 96.00,32.00 
	l0.00,70.624 L 96.00,236.128 l 160.256,160.00l 96.16-96.00l 5.248-5.504L 416.00,236.128l0.00-133.504 L 416.00,32.00 L 320.00,32.00 z"  />
<glyph unicode="&#xe438;" d="M0.00,449.184l0.00-384.00 c0.00-17.696, 14.272-32.736, 31.904-34.24c 52.672-4.512, 155.584-16.512, 192.096-44.16
	c 3.20-2.56, 6.40-5.44, 9.28-8.32l 11.392-11.392c 6.24-6.24, 16.384-6.24, 22.624,0.00l 11.392,11.392c 2.88,2.88, 6.08,5.76, 9.28,8.32
	c 36.512,27.648, 139.424,39.648, 192.128,44.16c 17.60,1.504, 31.872,16.576, 31.872,34.24l0.00,384.00 c0.00,17.696-14.304,31.776-31.936,30.752
	C 425.12,476.736, 313.312,465.504, 256.00,426.112c-57.312,39.36-169.152,50.624-224.032,53.824C 14.304,480.96,0.00,466.88,0.00,449.184z M 224.00,60.384
	c-54.40,24.96-120.64,32.96-160.00,35.52l0.00,320.00 c 48.00-3.84, 120.64-15.328, 160.00-45.12L 224.00,60.384 z M 448.00,95.904c-39.36-2.56-105.60-10.56-160.00-35.52l0.00,310.40 
	c 16.928,12.80, 39.68,22.08, 64.00,28.80c 21.12,6.08, 43.488,10.208, 64.00,12.768c 11.488,1.632, 22.048,2.88, 32.00,3.52L 448.00,95.904 z"  />
<glyph unicode="&#xe439;" d="M 64.00,479.104C 56.992,479.552, 44.288,479.808, 32.00,480.00C 14.304,480.256,0.00,465.952,0.00,448.256l0.00-384.00 
	c0.00-17.696, 14.304-31.712, 32.00-31.584c 12.992,0.064, 26.272,0.032, 32.00-0.416c 47.84-3.584, 120.64-16.64, 160.00-46.40c 3.20-2.56, 6.40-5.44, 9.28-8.32
	l 11.392-11.392c 6.24-6.24, 16.384-6.24, 22.624,0.00l 11.392,11.392c 2.88,2.88, 6.08,5.76, 9.28,8.32c 39.36,29.792, 112.16,42.816, 160.00,46.40
	c 5.728,0.448, 19.008,0.48, 32.00,0.416c 17.696-0.128, 32.00,13.92, 32.00,31.584l0.00,384.00 c0.00,17.696-14.304,32.00-32.00,31.744c-12.32-0.192-25.024-0.448-32.00-0.896
	C 400.672,476.032, 313.856,464.96, 256.00,425.184C 198.144,464.928, 111.328,476.032, 64.00,479.104z M 224.00,59.424c-54.40,24.96-120.64,32.96-160.00,35.52l0.00,320.00 
	c 48.00-3.84, 120.64-15.328, 160.00-45.12L 224.00,59.424 z M 288.00,59.424l0.00,310.40 c 16.928,12.80, 39.68,22.08, 64.00,28.80l0.00-126.40 c0.00-8.832, 5.056-10.944, 11.328-4.672L 384.00,288.256
	l 20.672-20.672C 410.944,261.312, 416.00,263.392, 416.00,272.256l0.00,139.20 c 11.488,1.632, 22.048,2.88, 32.00,3.52l0.00-320.00 C 408.64,92.416, 342.40,84.416, 288.00,59.424z"  />
<glyph unicode="&#xe43a;" d="M 256.00,424.928C 178.24,478.40, 60.992,480.00, 32.00,480.00l0.00,0.00C 13.504,480.00,0.00,465.696,0.00,448.00l0.00-384.00 c0.00-17.696, 6.496-32.00, 32.00-32.00l0.00,0.00
		c 38.40,0.00, 142.048-8.64, 192.00-46.40c 3.20-2.56, 6.40-5.44, 9.28-8.32c0.00,0.00, 5.088-5.088, 11.328-11.328c 6.304-6.304, 16.448-6.304, 22.752,0.00L 278.72-22.72
		C 281.60-19.84, 284.80-16.96, 288.00-14.40c 49.952,37.792, 158.944,46.912, 197.344,46.912c0.00,0.00-14.176-0.512-5.344-0.512c 17.504,0.00, 32.00,14.304, 32.00,32.00L 512.00,448.00 
		c0.00,17.696-12.992,32.00-32.00,32.00l0.00,0.00C 464.00,480.00, 333.76,478.40, 256.00,424.928z M 224.00,59.20c-54.40,24.96-120.64,32.96-160.00,35.52l0.00,320.00 C 112.00,410.88, 184.64,399.36, 224.00,369.60L 224.00,59.20 z
		 M 448.00,94.72c-39.36-2.56-105.60-10.56-160.00-35.52l0.00,310.40 c 16.928,12.80, 39.68,22.08, 64.00,28.80c 21.12,6.08, 43.488,10.208, 64.00,12.768
		c 11.488,1.632, 22.048,2.88, 32.00,3.52L 448.00,94.72 zM 96.00,304.00l0.00-17.28 c0.00-8.832, 7.104-16.896, 15.84-18.336c 21.728-3.488, 44.512-8.608, 65.248-15.68
		C 185.408,249.824, 192.00,254.176, 192.00,263.04L 192.00,283.52 C 192.00,292.384, 185.248,301.888, 176.768,304.32C 154.592,310.784, 132.192,315.104, 111.872,318.016C 103.136,319.232, 96.00,312.832, 96.00,304.00z
		M 96.00,208.00l0.00-17.28 c0.00-8.832, 7.104-16.896, 15.84-18.336c 21.728-3.488, 44.512-8.608, 65.248-15.68
		C 185.408,153.824, 192.00,158.176, 192.00,167.04L 192.00,187.52 C 192.00,196.384, 185.248,205.888, 176.768,208.32C 154.592,214.784, 132.192,219.104, 111.872,222.016
		C 103.136,223.232, 96.00,216.832, 96.00,208.00zM 320.00,283.52L 320.00,263.04 c0.00-8.832, 6.624-13.216, 15.008-10.336c 20.672,7.136, 43.424,12.192, 65.12,15.68
		C 408.864,269.824, 416.00,277.888, 416.00,286.72L 416.00,304.00 c0.00,8.832-7.136,15.232-15.872,14.016c-20.32-2.88-42.688-7.232-64.864-13.696
		C 326.752,301.888, 320.00,292.384, 320.00,283.52zM 320.00,187.52L 320.00,167.04 c0.00-8.832, 6.624-13.216, 15.008-10.336c 20.672,7.136, 43.424,12.192, 65.12,15.68
		C 408.864,173.824, 416.00,181.888, 416.00,190.72L 416.00,208.00 c0.00,8.832-7.136,15.232-15.872,14.016c-20.32-2.88-42.688-7.232-64.864-13.696
		C 326.752,205.888, 320.00,196.384, 320.00,187.52z"  />
<glyph unicode="&#xe43b;" d="M 31.04,479.072C 13.92,483.328,0.00,472.512,0.00,454.816l0.00-352.00 c0.00-17.696, 13.408-37.024, 29.984-43.264
	l 196.064-73.504c 16.544-6.208, 43.392-6.208, 59.936,0.00l 196.064,73.504C 498.56,65.792, 512.00,85.12, 512.00,102.816l0.00,352.00 c0.00,17.696-13.92,28.544-31.072,24.256
	L 256.00,422.816L 31.04,479.072z M 64.00,404.832l 160.00-40.00l0.00-309.664 L 64.00,115.20L 64.00,404.832 z M 288.00,55.20L 288.00,364.192 l 64.00,13.44l0.00-113.344 c0.00-8.832, 5.056-10.944, 11.328-4.672L 384.00,283.328
	l 20.672-23.712C 410.944,253.344, 416.00,255.424, 416.00,264.288L 416.00,391.104 l 32.00,6.72L 448.00,115.20 L 288.00,55.20z"  />
<glyph unicode="&#xe43c;" d="M 448.00,480.00L 128.00,480.00 C 74.88,480.00, 32.00,437.12, 32.00,384.00l0.00-320.00 c0.00-53.12, 42.88-96.00, 96.00-96.00l 320.00,0.00 c 17.696,0.00, 32.00,14.304, 32.00,32.00l0.00,128.00 L 480.00,448.00 
	C 480.00,465.696, 465.696,480.00, 448.00,480.00z M 416.00,32.00L 128.00,32.00 c-17.60,0.00-32.00,14.40-32.00,32.00s 14.40,32.00, 32.00,32.00l 288.00,0.00 L 416.00,32.00 z M 416.00,160.00L 128.00,160.00 c-11.296,0.00-21.952-2.304-32.00-5.888L 96.00,384.00 c0.00,17.60, 14.40,32.00, 32.00,32.00
	l 288.00,0.00 L 416.00,160.00 z"  />
<glyph unicode="&#xe43d;" d="M 448.00,480.00L 128.00,480.00 C 74.88,480.00, 32.00,437.12, 32.00,384.00l0.00-320.00 c0.00-53.12, 42.88-96.00, 96.00-96.00l 320.00,0.00 c 17.696,0.00, 32.00,14.304, 32.00,32.00l0.00,128.00 L 480.00,448.00 
	C 480.00,465.696, 465.696,480.00, 448.00,480.00z M 128.00,416.00l0.00-256.00 c-11.296,0.00-21.952-2.304-32.00-5.888L 96.00,384.00 C 96.00,401.60, 110.40,416.00, 128.00,416.00z M 416.00,32.00L 128.00,32.00 c-17.60,0.00-32.00,14.40-32.00,32.00s 14.40,32.00, 32.00,32.00l 64.00,0.00 l 224.00,0.00 L 416.00,32.00 
	z M 416.00,160.00L 192.00,160.00 L 192.00,416.00 l 224.00,0.00 L 416.00,160.00 z"  />
<glyph unicode="&#xe43e;" d="M 448.00,480.00L 128.00,480.00 C 74.88,480.00, 32.00,437.12, 32.00,384.00l0.00-320.00 c0.00-53.12, 42.88-96.00, 96.00-96.00l 320.00,0.00 c 17.696,0.00, 32.00,14.304, 32.00,32.00L 480.00,448.00 
	C 480.00,465.696, 465.696,480.00, 448.00,480.00z M 128.00,32.00c-17.60,0.00-32.00,14.40-32.00,32.00L 96.00,293.888 C 106.048,290.304, 116.704,288.00, 128.00,288.00l 128.00,0.00 l0.00-144.00 c0.00-8.832, 4.80-10.688, 10.688-4.128L 304.00,181.312
	l 37.312-41.44C 347.20,133.312, 352.00,135.168, 352.00,144.00L 352.00,288.00 l 64.00,0.00 l0.00-256.00 L 128.00,32.00 z M 416.00,352.00L 128.00,352.00 C 110.40,352.00, 96.00,366.40, 96.00,384.00s 14.40,32.00, 32.00,32.00l 288.00,0.00 L 416.00,352.00 z"  />
<glyph unicode="&#xe43f;" d="M 448.00,480.00L 128.00,480.00 C 74.88,480.00, 32.00,437.12, 32.00,384.00l0.00-320.00 c0.00-53.12, 42.88-96.00, 96.00-96.00l 320.00,0.00 c 17.696,0.00, 32.00,14.304, 32.00,32.00l0.00,128.00 L 480.00,448.00 
	C 480.00,465.696, 465.696,480.00, 448.00,480.00z M 416.00,32.00L 128.00,32.00 c-17.60,0.00-32.00,14.40-32.00,32.00s 14.40,32.00, 32.00,32.00l 32.00,0.00 l 256.00,0.00 L 416.00,32.00 z M 416.00,160.00L 160.00,160.00 L 160.00,416.00 l 256.00,0.00 L 416.00,160.00 z"  />
<glyph unicode="&#xe440;" d="M 448.00,480.00l-96.00,0.00 L 256.00,480.00 L 128.00,480.00 C 74.88,480.00, 32.00,437.12, 32.00,384.00l0.00-320.00 c0.00-53.12, 42.88-96.00, 96.00-96.00l 320.00,0.00 c 17.696,0.00, 32.00,14.304, 32.00,32.00l0.00,128.00 L 480.00,448.00 
	C 480.00,465.696, 465.696,480.00, 448.00,480.00z M 416.00,32.00L 218.112,32.00 L 128.00,32.00 c-17.60,0.00-32.00,14.40-32.00,32.00s 14.40,32.00, 32.00,32.00l 288.00,0.00 L 416.00,32.00 z M 128.00,160.00c-11.296,0.00-21.952-2.304-32.00-5.888L 96.00,384.00 
	c0.00,17.60, 14.40,32.00, 32.00,32.00l 128.00,0.00 l0.00-144.00 c0.00-8.832, 4.32-10.24, 9.60-3.20l 38.40,40.192L 342.40,268.80C 347.68,261.76, 352.00,263.168, 352.00,272.00L 352.00,416.00 l 64.00,0.00 l0.00-256.00 L 128.00,160.00 z"  />
<glyph unicode="&#xe441;" d="M 448.00,480.00L 128.00,480.00 C 74.88,480.00, 32.00,437.12, 32.00,384.00l0.00-320.00 c0.00-53.12, 42.88-96.00, 96.00-96.00l 320.00,0.00 c 17.696,0.00, 32.00,14.304, 32.00,32.00l0.00,128.00 L 480.00,448.00 
		C 480.00,465.696, 465.696,480.00, 448.00,480.00z M 416.00,32.00L 218.112,32.00 L 128.00,32.00 c-17.60,0.00-32.00,14.40-32.00,32.00s 14.40,32.00, 32.00,32.00l 288.00,0.00 L 416.00,32.00 z M 416.00,160.00L 128.00,160.00 c-11.296,0.00-21.952-2.304-32.00-5.888L 96.00,384.00 
		c0.00,17.60, 14.40,32.00, 32.00,32.00l 288.00,0.00 L 416.00,160.00 zM 176.00,224.00l 160.00,0.00 C 344.832,224.00, 352.00,231.168, 352.00,240.00l0.00,32.00 C 352.00,280.832, 344.832,288.00, 336.00,288.00l-160.00,0.00 C 167.168,288.00, 160.00,280.832, 160.00,272.00l0.00-32.00 
		C 160.00,231.168, 167.168,224.00, 176.00,224.00zM 176.00,320.00l 160.00,0.00 C 344.832,320.00, 352.00,327.168, 352.00,336.00l0.00,32.00 C 352.00,376.832, 344.832,384.00, 336.00,384.00l-160.00,0.00 C 167.168,384.00, 160.00,376.832, 160.00,368.00l0.00-32.00 
		C 160.00,327.168, 167.168,320.00, 176.00,320.00z"  />
<glyph unicode="&#xe442;" d="M 480.00,384.00l-96.00,0.00 L 384.00,416.00 c0.00,17.696-14.304,32.00-32.00,32.00L 32.00,448.00 C 14.304,448.00,0.00,433.696,0.00,416.00l0.00-320.00 c0.00-53.12, 42.88-96.00, 96.00-96.00l 320.00,0.00 c 53.12,0.00, 96.00,42.88, 96.00,96.00L 512.00,352.00 
		C 512.00,369.696, 497.696,384.00, 480.00,384.00z M 384.00,320.00l 64.00,0.00 l0.00-224.00 c0.00-17.60-14.40-32.00-32.00-32.00s-32.00,14.40-32.00,32.00L 384.00,320.00 z M 64.00,96.00L 64.00,384.00 l 256.00,0.00 l0.00-288.00 c0.00-11.296, 2.304-21.952, 5.888-32.00L 96.00,64.00 
		C 78.40,64.00, 64.00,78.40, 64.00,96.00zM 272.00,256.00l-160.00,0.00 C 103.168,256.00, 96.00,248.832, 96.00,240.00l0.00-32.00 C 96.00,199.168, 103.168,192.00, 112.00,192.00l 160.00,0.00 C 280.832,192.00, 288.00,199.168, 288.00,208.00l0.00,32.00 
		C 288.00,248.832, 280.832,256.00, 272.00,256.00zM 272.00,352.00l-160.00,0.00 C 103.168,352.00, 96.00,344.832, 96.00,336.00l0.00-32.00 C 96.00,295.168, 103.168,288.00, 112.00,288.00l 160.00,0.00 C 280.832,288.00, 288.00,295.168, 288.00,304.00l0.00,32.00 
		C 288.00,344.832, 280.832,352.00, 272.00,352.00zM 272.00,160.00l-160.00,0.00 C 103.168,160.00, 96.00,152.832, 96.00,144.00l0.00-32.00 C 96.00,103.168, 103.168,96.00, 112.00,96.00l 160.00,0.00 C 280.832,96.00, 288.00,103.168, 288.00,112.00l0.00,32.00 
		C 288.00,152.832, 280.832,160.00, 272.00,160.00z"  />
<glyph unicode="&#xe443;" d="M 480.00,384.00l-96.00,0.00 L 384.00,416.00 c0.00,17.696-14.304,32.00-32.00,32.00L 32.00,448.00 C 14.304,448.00,0.00,433.696,0.00,416.00l0.00-320.00 c0.00-53.12, 42.88-96.00, 96.00-96.00l 320.00,0.00 c 53.12,0.00, 96.00,42.88, 96.00,96.00L 512.00,352.00 
		C 512.00,369.696, 497.696,384.00, 480.00,384.00z M 384.00,320.00l 64.00,0.00 l0.00-224.00 c0.00-17.60-14.40-32.00-32.00-32.00s-32.00,14.40-32.00,32.00L 384.00,320.00 z M 64.00,96.00L 64.00,384.00 l 256.00,0.00 l0.00-288.00 c0.00-11.296, 2.304-21.952, 5.888-32.00L 96.00,64.00 
		C 78.40,64.00, 64.00,78.40, 64.00,96.00zM 272.00,256.00l-160.00,0.00 C 103.168,256.00, 96.00,248.832, 96.00,240.00S 103.168,224.00, 112.00,224.00l 160.00,0.00 C 280.832,224.00, 288.00,231.168, 288.00,240.00S 280.832,256.00, 272.00,256.00zM 272.00,352.00l-160.00,0.00 C 103.168,352.00, 96.00,344.832, 96.00,336.00l0.00-32.00 C 96.00,295.168, 103.168,288.00, 112.00,288.00l 160.00,0.00 C 280.832,288.00, 288.00,295.168, 288.00,304.00l0.00,32.00 
		C 288.00,344.832, 280.832,352.00, 272.00,352.00zM 272.00,192.00l-160.00,0.00 C 103.168,192.00, 96.00,184.832, 96.00,176.00S 103.168,160.00, 112.00,160.00l 160.00,0.00 C 280.832,160.00, 288.00,167.168, 288.00,176.00S 280.832,192.00, 272.00,192.00zM 272.00,128.00l-160.00,0.00 C 103.168,128.00, 96.00,120.832, 96.00,112.00S 103.168,96.00, 112.00,96.00l 160.00,0.00 C 280.832,96.00, 288.00,103.168, 288.00,112.00S 280.832,128.00, 272.00,128.00z"  />
<glyph unicode="&#xe444;" d="M 480.00,480.00L 160.00,480.00 C 142.304,480.00, 128.00,465.696, 128.00,448.00l0.00-32.00 L 32.00,416.00 C 14.304,416.00,0.00,401.696,0.00,384.00l0.00-320.00 c0.00-53.12, 42.88-96.00, 96.00-96.00l 320.00,0.00 c 53.12,0.00, 96.00,42.88, 96.00,96.00L 512.00,448.00 
		C 512.00,465.696, 497.696,480.00, 480.00,480.00z M 64.00,352.00l 64.00,0.00 l0.00-288.00 c0.00-17.60-14.40-32.00-32.00-32.00s-32.00,14.40-32.00,32.00L 64.00,352.00 z M 448.00,64.00c0.00-17.60-14.40-32.00-32.00-32.00L 186.112,32.00 C 189.696,42.048, 192.00,52.704, 192.00,64.00L 192.00,416.00 
		l 256.00,0.00 L 448.00,64.00 zM 240.00,320.00l 160.00,0.00 C 408.832,320.00, 416.00,327.168, 416.00,336.00l0.00,32.00 C 416.00,376.832, 408.832,384.00, 400.00,384.00l-160.00,0.00 C 231.168,384.00, 224.00,376.832, 224.00,368.00l0.00-32.00 
		C 224.00,327.168, 231.168,320.00, 240.00,320.00zM 240.00,224.00l 160.00,0.00 C 408.832,224.00, 416.00,231.168, 416.00,240.00l0.00,32.00 C 416.00,280.832, 408.832,288.00, 400.00,288.00l-160.00,0.00 C 231.168,288.00, 224.00,280.832, 224.00,272.00l0.00-32.00 
		C 224.00,231.168, 231.168,224.00, 240.00,224.00zM 240.00,128.00l 160.00,0.00 c 8.832,0.00, 16.00,7.168, 16.00,16.00l0.00,32.00 C 416.00,184.832, 408.832,192.00, 400.00,192.00l-160.00,0.00 C 231.168,192.00, 224.00,184.832, 224.00,176.00l0.00-32.00 
		C 224.00,135.168, 231.168,128.00, 240.00,128.00z"  />
<glyph unicode="&#xe445;" d="M 480.00,416.00l-96.00,0.00 L 384.00,448.00 c0.00,17.696-14.304,32.00-32.00,32.00L 32.00,480.00 C 14.304,480.00,0.00,465.696,0.00,448.00l0.00-384.00 c0.00-53.12, 42.88-96.00, 96.00-96.00l 320.00,0.00 c 53.12,0.00, 96.00,42.88, 96.00,96.00L 512.00,384.00 
		C 512.00,401.696, 497.696,416.00, 480.00,416.00z M 384.00,352.00l 64.00,0.00 l0.00-288.00 c0.00-17.60-14.40-32.00-32.00-32.00s-32.00,14.40-32.00,32.00L 384.00,352.00 z M 64.00,64.00L 64.00,416.00 l 256.00,0.00 l0.00-352.00 c0.00-11.296, 2.304-21.952, 5.888-32.00L 96.00,32.00 
		C 78.40,32.00, 64.00,46.40, 64.00,64.00zM 272.00,256.00l-160.00,0.00 C 103.168,256.00, 96.00,248.832, 96.00,240.00l0.00-32.00 C 96.00,199.168, 103.168,192.00, 112.00,192.00l 160.00,0.00 C 280.832,192.00, 288.00,199.168, 288.00,208.00l0.00,32.00 
		C 288.00,248.832, 280.832,256.00, 272.00,256.00zM 272.00,384.00l-160.00,0.00 C 103.168,384.00, 96.00,376.832, 96.00,368.00l0.00-64.00 C 96.00,295.168, 103.168,288.00, 112.00,288.00l 160.00,0.00 C 280.832,288.00, 288.00,295.168, 288.00,304.00l0.00,64.00 
		C 288.00,376.832, 280.832,384.00, 272.00,384.00zM 272.00,160.00l-160.00,0.00 C 103.168,160.00, 96.00,152.832, 96.00,144.00l0.00-32.00 C 96.00,103.168, 103.168,96.00, 112.00,96.00l 160.00,0.00 C 280.832,96.00, 288.00,103.168, 288.00,112.00l0.00,32.00 
		C 288.00,152.832, 280.832,160.00, 272.00,160.00z"  />
<glyph unicode="&#xe446;" d="M 448.00,480.00L 64.00,480.00 C 46.304,480.00, 32.00,465.696, 32.00,448.00l0.00-448.00 c0.00-17.696, 14.304-32.00, 32.00-32.00l 384.00,0.00 c 17.696,0.00, 32.00,14.304, 32.00,32.00L 480.00,448.00 
		C 480.00,465.696, 465.696,480.00, 448.00,480.00z M 96.00,416.00l 32.00,0.00 l0.00-384.00 L 96.00,32.00 L 96.00,416.00 z M 416.00,32.00L 192.00,32.00 L 192.00,416.00 l 224.00,0.00 L 416.00,32.00 z"  />
<glyph unicode="&#xe447;" d="M 448.00,480.00L 64.00,480.00 C 46.304,480.00, 32.00,465.696, 32.00,448.00l0.00-448.00 
	c0.00-17.696, 14.304-32.00, 32.00-32.00l 384.00,0.00 c 17.696,0.00, 32.00,14.304, 32.00,32.00L 480.00,448.00 C 480.00,465.696, 465.696,480.00, 448.00,480.00z M 128.00,32.00L 96.00,32.00 L 96.00,416.00 l 32.00,0.00 L 128.00,32.00 z M 416.00,32.00L 192.00,32.00 L 192.00,416.00 l 64.00,0.00 l0.00-160.00 l 48.00,32.00l0.00,0.00L 352.00,256.00L 352.00,416.00 l 64.00,0.00 L 416.00,32.00 z"  />
<glyph unicode="&#xe448;" d="M 448.00,480.00L 64.00,480.00 C 46.304,480.00, 32.00,465.696, 32.00,448.00l0.00-448.00 c0.00-17.696, 14.304-32.00, 32.00-32.00l 384.00,0.00 c 17.696,0.00, 32.00,14.304, 32.00,32.00L 480.00,448.00 
		C 480.00,465.696, 465.696,480.00, 448.00,480.00z M 128.00,32.00L 96.00,32.00 L 96.00,416.00 l 32.00,0.00 L 128.00,32.00 z M 416.00,32.00L 192.00,32.00 L 192.00,416.00 l 224.00,0.00 L 416.00,32.00 zM 368.00,352.00l-128.00,0.00 C 231.168,352.00, 224.00,344.832, 224.00,336.00l0.00-32.00 C 224.00,295.168, 231.168,288.00, 240.00,288.00l 128.00,0.00 C 376.832,288.00, 384.00,295.168, 384.00,304.00l0.00,32.00 
		C 384.00,344.832, 376.832,352.00, 368.00,352.00zM 368.00,256.00l-128.00,0.00 C 231.168,256.00, 224.00,248.832, 224.00,240.00l0.00-32.00 C 224.00,199.168, 231.168,192.00, 240.00,192.00l 128.00,0.00 C 376.832,192.00, 384.00,199.168, 384.00,208.00l0.00,32.00 
		C 384.00,248.832, 376.832,256.00, 368.00,256.00z"  />
<glyph unicode="&#xe449;" d="M 416.00,368.00C 416.00,376.832, 408.832,384.00, 400.00,384.00l-224.00,0.00 C 167.168,384.00, 160.00,376.832, 160.00,368.00L 160.00,320.00 
		l0.00-48.00 C 160.00,263.168, 167.168,256.00, 176.00,256.00l 224.00,0.00 C 408.832,256.00, 416.00,263.168, 416.00,272.00L 416.00,320.00 L 416.00,368.00 zM 400.00,224.00l-224.00,0.00 C 167.168,224.00, 160.00,216.832, 160.00,208.00l0.00-32.00 C 160.00,167.168, 167.168,160.00, 176.00,160.00l 224.00,0.00 
		c 8.832,0.00, 16.00,7.168, 16.00,16.00l0.00,32.00 C 416.00,216.832, 408.832,224.00, 400.00,224.00zM 400.00,128.00l-224.00,0.00 C 167.168,128.00, 160.00,120.832, 160.00,112.00l0.00-32.00 
		C 160.00,71.168, 167.168,64.00, 176.00,64.00l 224.00,0.00 c 8.832,0.00, 16.00,7.168, 16.00,16.00l0.00,32.00 C 416.00,120.832, 408.832,128.00, 400.00,128.00zM 480.00,480.00L 96.00,480.00 C 78.304,480.00, 64.00,465.696, 64.00,448.00L 32.00,448.00 C 14.304,448.00,0.00,433.696,0.00,416.00
		s 14.304-32.00, 32.00-32.00l 32.00,0.00 l0.00-32.00 L 32.00,352.00 C 14.304,352.00,0.00,337.696,0.00,320.00s 14.304-32.00, 32.00-32.00l 32.00,0.00 l0.00-32.00 L 32.00,256.00 C 14.304,256.00,0.00,241.696,0.00,224.00s 14.304-32.00, 32.00-32.00l 32.00,0.00 l0.00-32.00 L 32.00,160.00 c-17.696,0.00-32.00-14.304-32.00-32.00
		s 14.304-32.00, 32.00-32.00l 32.00,0.00 l0.00-32.00 L 32.00,64.00 c-17.696,0.00-32.00-14.304-32.00-32.00s 14.304-32.00, 32.00-32.00l 32.00,0.00 c0.00-17.696, 14.304-32.00, 32.00-32.00l 384.00,0.00 c 17.696,0.00, 32.00,14.304, 32.00,32.00L 512.00,448.00 C 512.00,465.696, 497.696,480.00, 480.00,480.00z
		 M 448.00,32.00L 128.00,32.00 L 128.00,416.00 l 320.00,0.00 L 448.00,32.00 z"  />
</font>
</defs>
</svg>
